Важное объявление!
У Нас Все раздачи мультитрекерные, при нуле пиров в релизах, можете смело вставать на закачку!
 
Автор Сообщение

димитри37

Стаж:
4 года 1 месяц
Сообщений:
1236

Репутация: 127

[+] [-]
Вне форума [Профиль] [ЛС]

Маньяк / Maniac
Страна: Франция, США
Жанр: ужасы, триллер
Год выпуска: 2012
Продолжительность: 01:28:51
Перевод: Профессиональный (дублированный)
Cубтитры: нет
Режиссер: Франк Халфун / Franck Khalfoun
В ролях: Элайджа Вуд, Нора Арнезедер, Сэмми Ротиби, Меган Даффи, Америка Оливо, Лиэн Балабан, Джен Броберг, Женевьев Александра, Брайан Эймз, Стеффини Фроммани
Описание: Улицы Лос-Анджелеса кажутся тихими и безопасными, но это не так. Серийный убийца, снимающий скальпы со своих жертв вновь выходит на охоту. Днем, Фрэнк — тихий владелец мастерской по реставрации манекенов, а ночью — безжалостный маньяк, убивающий исключительно женщин. Но его размеренная жизнь тихони-маньяка меняется, когда в ней появляется молодая фото-художница Анна, которой нужна его помощь в проведении выставки. Чем дальше развиваются их отношения, тем сложнее становится Фрэнку сделать выбор — ещё один скальп в качестве трофея или реальная любовь.

Сэмпл
Качество видео: BDRip (Исходник: BDRemux 1080p)
Формат видео: AVI
Видео: 720x304 (2.37:1), 24.000 fps, XviD build 73 ~1034 kbps avg, 0.20 bit/pixel
Аудио: 48 kHz, MPEG Layer 3, 2 ch, ~128.00 kbps avg

MediaInfo

Формат : AVI
Формат/Информация : Audio Video Interleave
Размер файла : 745 Мбайт
Продолжительность : 1 ч. 28 м.
Общий поток : 1172 Кбит/сек
Программа кодирования : VirtualDubMod 1.5.10.3 | www.virtualdub-fr.org || (build 2550/release)
Библиотека кодирования : VirtualDubMod build 2550/release
Видео
Идентификатор : 0
Формат : MPEG-4 Visual
Профиль формата : Advanced Simple@L5
Параметр BVOP формата : 1
Параметр QPel формата : Нет
Параметр GMC формата : Без точки перехода
Параметр матрицы формата : Выборочная
Идентификатор кодека : XVID
Идентификатор кодека/Подсказка : XviD
Продолжительность : 1 ч. 28 м.
Битрейт : 1034 Кбит/сек
Ширина : 720 пикселей
Высота : 304 пикселя
Соотношение сторон : 2,35:1
Частота кадров : 24,000 кадра/сек
Цветовое пространство : YUV
Субдискретизация насыщенности : 4:2:0
Битовая глубина : 8 бит
Тип развёртки : Прогрессивная
Метод сжатия : С потерями
Бит/(Пиксели*Кадры) : 0.197
Размер потока : 657 Мбайт (88%)
Библиотека кодирования : XviD 73
Аудио
Идентификатор : 1
Формат : MPEG Audio
Версия формата : Version 1
Профиль формата : Layer 3
Идентификатор кодека : 55
Идентификатор кодека/Подсказка : MP3
Продолжительность : 1 ч. 28 м.
Вид битрейта : Постоянный
Битрейт : 128 Кбит/сек
Каналы : 2 канала
Частота : 48,0 КГц
Метод сжатия : С потерями
Размер потока : 81,3 Мбайт (11%)
Выравнивание : Соединение по промежуткам
Продолжительность промежутка : 42 мс. (1,00 видеокадр)
Время предзагрузки промежутка : 504 мс.
Библиотека кодирования : LAME3.98r
Настройки программы : -m s -V 4 -q 0 -lowpass 17 -b 128

Скриншоты

Показать сообщения:    

Текущее время: Сегодня 16:14

Часовой пояс: GMT



Вы не можете начинать темы
Вы не можете отвечать на сообщения
Вы не можете редактировать свои сообщения
Вы не можете удалять свои сообщения
Вы не можете голосовать в опросах
Вы не можете прикреплять файлы к сообщениям
Вы не можете скачивать файлы