Важное объявление!
У Нас Все раздачи мультитрекерные, при нуле пиров в релизах, можете смело вставать на закачку!
 
Автор Сообщение

HUNTER

Стаж:
4 года 9 месяцев
Сообщений:
65057

Репутация: 101

[+] [-]
Вне форума [Профиль] [ЛС]

Маньяк-полицейский / Maniac Cop
Страна: США
Жанр: ужасы, боевик, криминал
Год выпуска: 1988
Продолжительность: 01:25:00
Перевод: Авторский (одноголосый, закадровый) Леонид Володарский
Cубтитры: нет
Режиссер: Уильям Лустиг / William Lustig
В ролях: Том Аткинс, Брюс Кэмпбелл, Лаурен Лэндон, Ричард Раундтри, Уильям Смит, Роберт З'Дар, Шири Норт, Нина Арвесен, Ник Барбаро, Лу Бонаки
Описание: Нью-Йорк в ужасе! Город охватила серия жестоких убийств. Все свидетели утверждают, что их совершил некто в форме полицейского. Управление полиции поначалу не верит в это, и только лейтенант Френк МакКрей понимает, о ком идет речь.

Качество видео: BDRip спасибо edich2
Формат видео: AVI
Видео кодек: XviD
Аудио кодек: AC3
Видео: 720x384 (1.88:1), 23.976 fps, XviD build 50 ~2199 kbps avg, 0.33 bit/pixel
Аудио: 48 kHz, AC3 Dolby Digital, 2/0 (L,R) ch, ~192 kbps

Спасибо

за Володарского спасибо Moksanetta и hvh

MediaInfo

Полное имя : Маньяк полицейский.avi
Формат : AVI
Формат/Информация : Audio Video Interleave
Размер файла : 1,43 Гбайт
Продолжительность : 1 ч. 25 м.
Общий поток : 2401 Кбит/сек
Программа кодирования : VirtualDubMod 1.5.10.2 (build 2540/release)
Видео
Идентификатор : 0
Формат : MPEG-4 Visual
Профиль формата : Advanced Simple@L5
Параметр BVOP формата : 2
Параметр QPel формата : Нет
Параметр GMC формата : Без точки перехода
Параметр матрицы формата : Выборочная
Идентификатор кодека : XVID
Идентификатор кодека/Подсказка : XviD
Продолжительность : 1 ч. 25 м.
Битрейт : 2200 Кбит/сек
Ширина : 720 пикселей
Высота : 384 пикселя
Соотношение сторон : 1,85:1
Частота кадров : 23,976 кадра/сек
Цветовое пространство : YUV
Субдискретизация насыщенности : 4:2:0
Битовая глубина : 8 бит
Тип развёртки : Прогрессивная
Метод сжатия : С потерями
Бит/(Пиксели*Кадры) : 0.332
Размер потока : 1,31 Гбайт (92%)
Библиотека кодирования : XviD 1.2.1 (UTC 2008-12-04)
Аудио
Идентификатор : 1
Формат : AC-3
Формат/Информация : Audio Coding 3
Расширение режима : CM (complete main)
Параметр Endianness формата : Big
Идентификатор кодека : 2000
Продолжительность : 1 ч. 25 м.
Вид битрейта : Постоянный
Битрейт : 192 Кбит/сек
Каналы : 2 канала
Расположение каналов : Front: L R
Частота : 48,0 КГц
Битовая глубина : 16 бит
Метод сжатия : С потерями
Размер потока : 117 Мбайт (8%)
Выравнивание : Разделение по промежуткам
Продолжительность промежутка : 42 мс. (1,00 видеокадр)
Время предзагрузки промежутка : 500 мс.

Скриншоты


-
-Маньяк-полицейский 2 / Maniac Cop 2
Страна: США
Жанр: ужасы, боевик, триллер, криминал
Год выпуска: 1990
Продолжительность: 01:27:22
Перевод: Авторский (одноголосый, закадровый) Леонид Володарский
Cубтитры: нет
Режиссер: Уильям Лустиг / William Lustig
В ролях: Роберт Дави, Клаудиа Кристиан, Майкл Лернер, Брюс Кэмпбелл, Лаурен Лэндон, Кларенс Уильямс III
Описание: Все думают, что Мэт Корделл утонул в пучинах реки, куда он упал в полицейском грузовике, но они жестоко ошибаются. Мэтт сам назначил себя судьей, жюри присяжных и палачом. Совсем недавно он был героем, лучшим полицейским, но его приверженность к справедливости добавило ему врагов, властных и безжалостных, могущественных и непримиримых. Они отправили его в тюрьму Синг-Синг прямо в лапы злых преступников, которых он сам недавно засадил за решетку. Но теперь их обман и коррупция создали монстра, которого не может контролировать никто. Восставший из мертвых маньяк-полицейский снова на посту и единственный билет, который он выписывает-это билет в морг…

Качество видео: BDRip спасибо edich2
Формат видео: AVI
Видео кодек: XviD
Аудио кодек: AC3
Видео: 720x384 (1.88:1), 23.976 fps, XviD build 50 ~2149 kbps avg, 0.32 bit/pixel
Аудио: 48 kHz, AC3 Dolby Digital, 2/0 (L,R) ch, ~192 kbps

Спасибо

за Володарского спасибо vilkus

MediaInfo

Полное имя : Маньяк полицейский 2.avi
Формат : AVI
Формат/Информация : Audio Video Interleave
Размер файла : 1,43 Гбайт
Продолжительность : 1 ч. 27 м.
Общий поток : 2351 Кбит/сек
Программа кодирования : VirtualDubMod 1.5.10.2 (build 2540/release)
Видео
Идентификатор : 0
Формат : MPEG-4 Visual
Профиль формата : Advanced Simple@L5
Параметр BVOP формата : 2
Параметр QPel формата : Нет
Параметр GMC формата : Без точки перехода
Параметр матрицы формата : Выборочная
Идентификатор кодека : XVID
Идентификатор кодека/Подсказка : XviD
Продолжительность : 1 ч. 27 м.
Битрейт : 2150 Кбит/сек
Ширина : 720 пикселей
Высота : 384 пикселя
Соотношение сторон : 1,85:1
Частота кадров : 23,976 кадра/сек
Цветовое пространство : YUV
Субдискретизация насыщенности : 4:2:0
Битовая глубина : 8 бит
Тип развёртки : Прогрессивная
Метод сжатия : С потерями
Бит/(Пиксели*Кадры) : 0.324
Размер потока : 1,31 Гбайт (91%)
Библиотека кодирования : XviD 1.2.1 (UTC 2008-12-04)
Аудио
Идентификатор : 1
Формат : AC-3
Формат/Информация : Audio Coding 3
Расширение режима : CM (complete main)
Параметр Endianness формата : Big
Идентификатор кодека : 2000
Продолжительность : 1 ч. 27 м.
Вид битрейта : Постоянный
Битрейт : 192 Кбит/сек
Каналы : 2 канала
Расположение каналов : Front: L R
Частота : 48,0 КГц
Битовая глубина : 16 бит
Метод сжатия : С потерями
Размер потока : 120 Мбайт (8%)
Выравнивание : Разделение по промежуткам
Продолжительность промежутка : 42 мс. (1,00 видеокадр)
Время предзагрузки промежутка : 500 мс.

Скриншоты


-
-Маньяк-полицейский 3: Знак молчания / Maniac Cop 3: Badge of Silence
Страна: США
Жанр: ужасы, боевик
Год выпуска: 1993
Продолжительность: 01:24:42
Перевод 1: Авторский (одноголосый, закадровый) Леонид Володарский
Перевод 2: Авторский (одноголосый, закадровый) Андрей Гаврилов
Перевод 3: Авторский (одноголосый, закадровый) Петр Карцев
Cубтитры: нет
Режиссер: Уильям Лустиг / William Lustig
В ролях: Роберт Дави, Роберт З’Дар, Кэйтлин Дюлэйни, Гретчен Бекер, Пол Глисон, Джеки Эрл Хейли, Джулиус Харрис, Гранд Л. Буш, Даг Сэвант, Роберт Форстер
Описание: Роберт Дави играет хорошего полицейского, вовлеченного в опасную погоню за Корделлом, «маньяком — полицейским», вершащим на улицах Нью-Йорка кровавое правосудие по собственному усмотрению. На этот раз Корделл восстает из могилы для того, чтобы вернуть доброе имя находящейся в коме женщине — полицейской Кэйт.
Она получила пулю в перестрелке и ее же обвинили в жестоком убийстве «случайного посетителя», который на самом деле был наркоманом — грабителем, захватившим заложницу. А подставили Кэт телерепортеры, подтасовавшие видеозапись при монтаже. Но наводящий ужас в своей безжалостной мести «маньяк — полицейский» готов разобраться со всеми «плохими парнями».

Качество видео: ВDRip спасибо lekcukomAn
Формат видео: AVI
Видео кодек: XviD
Аудио кодек: AC3
Видео: 720x304 (2.37:1), 23.976 fps, XviD build 65 ~1799 kbps avg, 0.34 bit/pixel
Аудио#1: 48 kHz, AC3 Dolby Digital, 2/0 (L,R) ch, ~192 kbps - Володарский
Аудио#2: 48 kHz, AC3 Dolby Digital, 2/0 (L,R) ch, ~192 kbps - Гаврилов
Аудио#3: 48 kHz, AC3 Dolby Digital, 2/0 (L,R) ch, ~192 kbps - Карцев

Спасибо

за Володарского, Гаврилова, Карцева спасибо budulai-8

MediaInfo

Полное имя : Маньяк полицейский 3 Знак молчания.avi
Формат : AVI
Формат/Информация : Audio Video Interleave
Размер файла : 1,42 Гбайт
Продолжительность : 1 ч. 24 м.
Общий поток : 2395 Кбит/сек
Программа кодирования : VirtualDubMod 1.5.10.2 (build 2540/release)
Видео
Идентификатор : 0
Формат : MPEG-4 Visual
Профиль формата : Advanced Simple@L5
Параметр BVOP формата : 1
Параметр QPel формата : Нет
Параметр GMC формата : Без точки перехода
Параметр матрицы формата : Выборочная
Идентификатор кодека : XVID
Идентификатор кодека/Подсказка : XviD
Продолжительность : 1 ч. 24 м.
Битрейт : 1800 Кбит/сек
Ширина : 720 пикселей
Высота : 304 пикселя
Соотношение сторон : 2,35:1
Частота кадров : 23,976 кадра/сек
Цветовое пространство : YUV
Субдискретизация насыщенности : 4:2:0
Битовая глубина : 8 бит
Тип развёртки : Прогрессивная
Метод сжатия : С потерями
Бит/(Пиксели*Кадры) : 0.343
Размер потока : 1,07 Гбайт (75%)
Библиотека кодирования : XviD 65
Аудио #1
Идентификатор : 1
Формат : AC-3
Формат/Информация : Audio Coding 3
Расширение режима : CM (complete main)
Параметр Endianness формата : Big
Идентификатор кодека : 2000
Продолжительность : 1 ч. 24 м.
Вид битрейта : Постоянный
Битрейт : 192 Кбит/сек
Каналы : 2 канала
Расположение каналов : Front: L R
Частота : 48,0 КГц
Битовая глубина : 16 бит
Метод сжатия : С потерями
Размер потока : 116 Мбайт (8%)
Выравнивание : Разделение по промежуткам
Продолжительность промежутка : 42 мс. (1,00 видеокадр)
Время предзагрузки промежутка : 500 мс.
Заголовок : Володарский
Аудио #2
Идентификатор : 2
Формат : AC-3
Формат/Информация : Audio Coding 3
Расширение режима : CM (complete main)
Параметр Endianness формата : Big
Идентификатор кодека : 2000
Продолжительность : 1 ч. 24 м.
Вид битрейта : Постоянный
Битрейт : 192 Кбит/сек
Каналы : 2 канала
Расположение каналов : Front: L R
Частота : 48,0 КГц
Битовая глубина : 16 бит
Метод сжатия : С потерями
Размер потока : 116 Мбайт (8%)
Выравнивание : Разделение по промежуткам
Продолжительность промежутка : 42 мс. (1,00 видеокадр)
Время предзагрузки промежутка : 500 мс.
Заголовок : Гаврилов
Аудио #3
Идентификатор : 3
Формат : AC-3
Формат/Информация : Audio Coding 3
Расширение режима : CM (complete main)
Параметр Endianness формата : Big
Идентификатор кодека : 2000
Продолжительность : 1 ч. 24 м.
Вид битрейта : Постоянный
Битрейт : 192 Кбит/сек
Каналы : 2 канала
Расположение каналов : Front: L R
Частота : 48,0 КГц
Битовая глубина : 16 бит
Метод сжатия : С потерями
Размер потока : 116 Мбайт (8%)
Выравнивание : Разделение по промежуткам
Продолжительность промежутка : 42 мс. (1,00 видеокадр)
Время предзагрузки промежутка : 500 мс.
Заголовок : Карцев

Скриншоты


_________________
Показать сообщения:    

Текущее время: Сегодня 09:28

Часовой пояс: GMT



Вы не можете начинать темы
Вы не можете отвечать на сообщения
Вы не можете редактировать свои сообщения
Вы не можете удалять свои сообщения
Вы не можете голосовать в опросах
Вы не можете прикреплять файлы к сообщениям
Вы не можете скачивать файлы