Важное объявление!
У Нас Все раздачи мультитрекерные, при нуле пиров в релизах, можете смело вставать на закачку!
Статистика раздачи
Размер:     |    Зарегистрирован:     |    Скачан:     |   
Нет
 
     
 
 
Автор Сообщение

HUNTER

Стаж:
5 лет
Сообщений:
68391

Репутация: 101

[+] [-]
Вне форума [Профиль] [ЛС]

[url=tracker.php?nm=Mandariinid%202013]Все раздачи[/url] || [url=viewtopic.php?t=5216110]BDRip-AVC 744 MB[/url] | [url=viewtopic.php?t=5216472]BDRip 1,45 GB[/url] | [url=viewtopic.php?t=5122768]BDRip-AVC 1,45 GB[/url] | [url=viewtopic.php?t=5118396]BDRip-AVC 1,91 GB[/url] | [url=viewtopic.php?t=5120094]BDRip 720p 2,96 GB[/url] | [url=viewtopic.php?t=5117600]Blu-ray disc (custom) 1080p 15,99 GB[/url]-Мандарины
Mandariinid / Tangerines

Страны: Эстония, Грузия
Жанр: военная драма
Год выпуска: 2013
Продолжительность: 01:22:59
Перевод: не требуется + 2 x одноголосый закадровый (на эстонскую речь)
Cубтитры: русские (на эстонскую речь), эстонские (на русскую речь), английские
Оригинальная аудиодорожка: русско-эстонская
Режиссер: Заза Урушадзе / Zaza Urushadze
В ролях: Лембит Ульфсак, Георгий Накашидзе, Элмо Нюганен, Миша Месхи, Райво Трасс, Зура Бегалишвили, Давид Хахидзе, Джано Изория, Гия Гогишвили, Вамех Янгидзе
Описание: 1992 год, Абхазия. Древнее эстонское село, расположенное в живописном месте между горами и морем, опустело — эстонцы вернулись на свою историческую родину. Остались только хозяин товарного цеха Иво, его сосед, владелец мандариновой плантации Маргус, и местный доктор Юхан, который уже готов покинуть селение. Маргус также собирается уехать в Эстонию, но лишь после того как будет собран урожай мандаринов. Война доходит до села, происходит боевое столкновение между грузинами и абхазцами. После боя Иво и Маргус находят одного оставшегося в живых чеченского наёмника по имени Ахмед, который воюет на абхазской стороне. Иво забирает Ахмеда к себе домой, чтобы его вылечить. Ночью, хороня погибших, Маргус обнаруживает, что несмотря на тяжелое ранение, в бою выжил и один грузин — молодой парень Ника. Его тоже относят в дом Иво. Так под одной крышей оказываются бойцы противоборствующих сторон…
Тип релиза: BDRip 1080p (за [url=viewtopic.php?t=5117600]исходный Blu-ray[/url] спасибо [url=profile.php?mode=viewprofile&u=8679101]порошков[/url])
Контейнер: MKV
Видео: x264 | 1920x804p | 2,39:1 | 8575 kbps | 25 fps | High Profile 4.1
Аудио №1: Русский | AC-3 | 5.1 | 48.0 kHz | 448 kbps | PashaUp
Аудио №2: Русский | MP3 | 2.0 | 48.0 kHz | 128 kbps | Телеканал ETV (за дорожку спасибо [url=profile.php?mode=viewprofile&u=15465818]tokarevamarina[/url])
Аудио №3: Русско-эстонский | AC-3 | 5.1 | 48.0 kHz | 448 kbps | Оригинал
Субтитры №1: Русские | SRT
Субтитры №2: Эстонские | SRT
Субтитры №3: Английские | SRT

[img]https://rating.kinopoisk.ru/772017.gif[/img]
Сэмпл
Сравнение с исходником

Скриншоты

MediaInfo

General
Unique ID : 215151984539561997422611983705873225548 (0xA1DCC3D48B2A6ED8AF8BFE6861DE974C)
Complete name : D:\Downloads\Tangerines BDRip 1080p.mkv
Format : Matroska
Format version : Version 2
File size : 5.57 GiB
Duration : 1 h 22 min
Overall bit rate : 9 602 kb/s
Encoded date : UTC 2016-08-28 10:30:48
Writing application : mkvmerge v9.3.1 ('Mask Machine') 32bit
Writing library : libebml v1.3.4 + libmatroska v1.4.5
Video
ID : 1
Format : AVC
Format/Info : Advanced Video Codec
Format profile : High@L4.1
Format settings, CABAC : Yes
Format settings, ReFrames : 5 frames
Codec ID : V_MPEG4/ISO/AVC
Duration : 1 h 22 min
Bit rate : 8 575 kb/s
Width : 1 920 pixels
Height : 804 pixels
Display aspect ratio : 2.40:1
Frame rate mode : Constant
Frame rate : 25.000 FPS
Color space : YUV
Chroma subsampling : 4:2:0
Bit depth : 8 bits
Scan type : Progressive
Bits/(Pixel*Frame) : 0.222
Stream size : 4.97 GiB (89%)
Title : Мандарины / Mandariinid
Writing library : x264 core 148 r2705 3f5ed56
Encoding settings : cabac=1 / ref=5 / deblock=1:-2:-2 / analyse=0x3:0x133 / me=umh / subme=11 / psy=1 / psy_rd=1.20:0.15 / mixed_ref=1 / me_range=32 / chroma_me=1 / trellis=2 / 8x8dct=1 / cqm=0 / deadzone=21,11 / fast_pskip=0 / chroma_qp_offset=-3 / threads=6 / lookahead_threads=1 / sliced_threads=0 / nr=0 / decimate=1 / interlaced=0 / bluray_compat=0 / constrained_intra=0 / bframes=16 / b_pyramid=2 / b_adapt=2 / b_bias=0 / direct=1 / weightb=1 / open_gop=1 / weightp=2 / keyint=250 / keyint_min=25 / scenecut=40 / intra_refresh=0 / rc_lookahead=90 / rc=crf / mbtree=0 / crf=18.0 / qcomp=0.60 / qpmin=0 / qpmax=69 / qpstep=4 / vbv_maxrate=50000 / vbv_bufsize=62500 / crf_max=0.0 / nal_hrd=none / filler=0 / ip_ratio=1.40 / pb_ratio=1.30 / aq=2:1.00
Default : Yes
Forced : No
Color range : Limited
Color primaries : BT.709
Transfer characteristics : BT.709
Matrix coefficients : BT.709
Audio #1
ID : 2
Format : AC-3
Format/Info : Audio Coding 3
Mode extension : CM (complete main)
Format settings, Endianness : Big
Codec ID : A_AC3
Duration : 1 h 22 min
Bit rate mode : Constant
Bit rate : 448 kb/s
Channel(s) : 6 channels
Channel positions : Front: L C R, Side: L R, LFE
Sampling rate : 48.0 kHz
Frame rate : 31.250 FPS (1536 spf)
Compression mode : Lossy
Stream size : 266 MiB (5%)
Title : PashaUp
Language : Russian
Default : Yes
Forced : No
Audio #2
ID : 3
Format : MPEG Audio
Format version : Version 1
Format profile : Layer 3
Codec ID : A_MPEG/L3
Codec ID/Hint : MP3
Duration : 1 h 22 min
Bit rate mode : Constant
Bit rate : 128 kb/s
Channel(s) : 2 channels
Sampling rate : 48.0 kHz
Frame rate : 41.667 FPS (1152 spf)
Compression mode : Lossy
Stream size : 76.0 MiB (1%)
Title : Телеканал ETV
Writing library : LAME3.99r
Encoding settings : -m s -V 4 -q 2 -lowpass 17 -b 128
Language : Russian
Default : No
Forced : No
Audio #3
ID : 4
Format : AC-3
Format/Info : Audio Coding 3
Mode extension : CM (complete main)
Format settings, Endianness : Big
Codec ID : A_AC3
Duration : 1 h 22 min
Bit rate mode : Constant
Bit rate : 448 kb/s
Channel(s) : 6 channels
Channel positions : Front: L C R, Side: L R, LFE
Sampling rate : 48.0 kHz
Frame rate : 31.250 FPS (1536 spf)
Compression mode : Lossy
Stream size : 266 MiB (5%)
Title : Оригинал
Language : Russian
Default : No
Forced : No
Text #1
ID : 5
Format : UTF-8
Codec ID : S_TEXT/UTF8
Codec ID/Info : UTF-8 Plain Text
Duration : 1 h 13 min
Bit rate : 16 b/s
Count of elements : 167
Stream size : 8.82 KiB (0%)
Title : Русские (на эстонскую речь)
Language : Russian
Default : No
Forced : No
Text #2
ID : 6
Format : UTF-8
Codec ID : S_TEXT/UTF8
Codec ID/Info : UTF-8 Plain Text
Duration : 1 h 16 min
Bit rate : 25 b/s
Count of elements : 407
Stream size : 14.3 KiB (0%)
Title : Эстонские (на русскую речь)
Language : Estonian
Default : No
Forced : No
Text #3
ID : 7
Format : UTF-8
Codec ID : S_TEXT/UTF8
Codec ID/Info : UTF-8 Plain Text
Duration : 1 h 20 min
Bit rate : 39 b/s
Count of elements : 571
Stream size : 23.5 KiB (0%)
Title : Английские
Language : English
Default : No
Forced : No
Menu
00:00:00.000 : en:Chapter 01
00:00:00.720 : en:Chapter 02
00:09:45.440 : en:Chapter 03
00:21:34.640 : en:Chapter 04
00:31:31.760 : en:Chapter 05
00:42:45.440 : en:Chapter 06
00:49:31.600 : en:Chapter 07
01:04:18.000 : en:Chapter 08
01:15:23.480 : en:Chapter 09

x264 log

x264 [info]: using SAR=1/1
x264 [info]: using cpu capabilities: MMX2 SSE2Fast SSSE3 SSE4.2 AVX FMA3 AVX2 LZCNT BMI2
x264 [info]: profile High, level 4.1
x264 [info]: frame I:675 Avg QP:15.81 size:198467
x264 [info]: frame P:23682 Avg QP:17.02 size: 80010
x264 [info]: frame B:100137 Avg QP:19.27 size: 33044
x264 [info]: consecutive B-frames: 1.3% 1.8% 4.9% 8.9% 13.7% 54.1% 7.2% 1.0% 2.5% 0.2% 1.8% 0.6% 0.3% 0.1% 0.9% 0.5% 0.4%
x264 [info]: mb I I16..4: 13.4% 70.8% 15.8%
x264 [info]: mb P I16..4: 3.6% 17.6% 2.7% P16..4: 28.8% 31.5% 10.4% 2.2% 0.3% skip: 2.9%
x264 [info]: mb B I16..4: 0.5% 2.7% 0.3% B16..8: 35.5% 16.5% 2.2% direct:12.6% skip:29.7% L0:42.9% L1:42.7% BI:14.4%
x264 [info]: 8x8 transform intra:74.4% inter:49.8%
x264 [info]: coded y,uvDC,uvAC intra: 84.6% 67.3% 44.0% inter: 36.4% 29.1% 3.7%
x264 [info]: i16 v,h,dc,p: 15% 11% 19% 55%
x264 [info]: i8 v,h,dc,ddl,ddr,vr,hd,vl,hu: 12% 10% 14% 8% 10% 11% 10% 11% 13%
x264 [info]: i4 v,h,dc,ddl,ddr,vr,hd,vl,hu: 35% 9% 12% 6% 8% 8% 8% 7% 8%
x264 [info]: i8c dc,h,v,p: 31% 34% 24% 11%
x264 [info]: Weighted P-Frames: Y:2.3% UV:1.3%
x264 [info]: ref P L0: 48.7% 10.2% 22.9% 9.0% 9.0% 0.2% 0.0%
x264 [info]: ref B L0: 77.9% 15.6% 5.3% 1.2%
x264 [info]: ref B L1: 94.3% 5.7%
x264 [info]: kb/s:8575.05
encoded 124494 frames, 4.53 fps, 8575.05 kb/s

_________________
Показать сообщения:    

Текущее время: Сегодня 01:56

Часовой пояс: GMT



Вы не можете начинать темы
Вы не можете отвечать на сообщения
Вы не можете редактировать свои сообщения
Вы не можете удалять свои сообщения
Вы не можете голосовать в опросах
Вы не можете прикреплять файлы к сообщениям
Вы не можете скачивать файлы