Ивановский Торрент трекер
Яндекс.Погода
 

[Цитировать]
HUNTER

-Манглхорн / Manglehorn -Страна: США
Студия: Dreambridge Films, Muskat Filmed Properties LLC, Rough House Pictures, Worldview Entertainment
Жанр: драма
Год выпуска: 2014
Мировая премьера: 30 августа 2014
Российская премьера: 11 июня 2015, «Cinema Prestige»
Дата выхода DVD: 3 сентября 2015, «Lizard Cinema Trade»
Продолжительность: 01:33:20
Перевод: Профессиональный (многоголосый закадровый) [Лицензия]
Cубтитры: нет
Оригинальная аудиодорожка: нет-Режиссер: Дэвид Гордон Грин / David Gordon Green-В ролях: Аль Пачино, Холли Хантер, Крис Мессина, Хармони Корин, Натали Вайлмон, Джун Гриффин Гарсиа, Ребекка Франкьоне, Лара Шах, Тед Фергюсон, Кристин Миллер Уайт-Описание: Непримечательный старик Эй Джей Манглхорн живёт в маленьком тихом городе: нянчится со своим котом, занимается изготовлением ключей, каждую пятницу ходит в банк, обедает в одном и том же месте. Но у него бурное преступное прошлое, в котором он однажды сделал главный выбор в жизни — между любовью женщины своей мечты и «большой работой».
В результате потери Манглхорн замкнулся, но тем не менее, продолжил поддерживать прерывистую связь с сыном и даже завязал осторожную дружбу с добросердечной женщиной из местного банка. Когда одинокий человек приближается к возможности новой любви, он оказывается на перепутье: погрязнуть в прошлом или уверенно пойти в будущее…
-Бонусы: нет- -Релиз группы: -Качество: DVD9 R5
Формат: DVD-Video
Видео кодек: MPEG2
Аудио кодек: AC3
Видео: PAL 16:9 (720x576(0.592)) MPEG Video, 25,000 кадр/сек, 6137 Кбит/сек
Аудио: Russian (Dolby AC3, 6 ch) 448 Кбит/сек, 48,0 КГц--

DVDinfo

Title:
Size: 4.87 Gb ( 5 104 434 KBytes ) - DVD-9
Enabled regions: 1, 2, 3, 4, 5, 6, 7, 8
VTS_01 :
Play Length: 00:00:25
Video: PAL 16:9 (720x576) VBR, Auto Pan&Scan, Auto Letterboxed
Audio:
Russian (Dolby AC3, 6 ch)
English (Dolby AC3, 6 ch)
English (Dolby AC3, 6 ch)
VTS_02 :
Play Length: 01:33:20
Video: PAL 16:9 (720x576) VBR, Auto Pan&Scan, Auto Letterboxed
Audio:
Russian (Dolby AC3, 6 ch)
Menu Video:
PAL 16:9 (720x576) VBR
Auto Pan&Scan, Auto Letterboxed
Menu Subtitles:
Not specified
Menu English Language Unit :
Root Menu
Chapter (PTT) Menu

MediaInfo

Общее
Полное имя : H:\Новинки 2015\Manglhorn.2014.DVD9\VIDEO_TS\VTS_02_2.VOB
Формат : MPEG-PS
Размер файла : 1024 Мбайт
Продолжительность : 21 м.
Режим общего битрейта : Переменный
Общий поток : 6719 Кбит/сек
Видео
Идентификатор : 224 (0xE0)
Формат : MPEG Video
Версия формата : Version 2
Профиль формата : Main@Main
Параметр BVOP формата : Да
Параметр матрицы формата : Выборочная
Параметр GOP формата : M=3, N=12
Продолжительность : 21 м.
Вид битрейта : Переменный
Битрейт : 6137 Кбит/сек
Максимальный битрейт : 8000 Кбит/сек
Ширина : 720 пикселей
Высота : 576 пикселей
Соотношение сторон : 16:9
Частота кадров : 25,000 кадров/сек
Стандарт вещания : PAL
Цветовое пространство : YUV
Субдискретизация насыщенности : 4:2:0
Битовая глубина : 8 бит
Тип развёртки : Прогрессивная
Метод сжатия : С потерями
Бит/(Пиксели*Кадры) : 0.592
Временной код первого кадра : 00:23:14:21
Оригинал временного кода : Group of pictures header
GOP, открыто/закрыто : Открыто
Размер потока : 935 Мбайт (91%)
Аудио
Идентификатор : 189 (0xBD)-128 (0x80)
Формат : AC-3
Формат/Информация : Audio Coding 3
Расширение режима : CM (complete main)
Параметр Endianness формата : Big
Режим смешивания : DVD-Video
Продолжительность : 21 м.
Вид битрейта : Постоянный
Битрейт : 448 Кбит/сек
Каналы : 6 каналов
Расположение каналов : Front: L C R, Side: L R, LFE
Частота : 48,0 КГц
Метод сжатия : С потерями
Задержка видео : -360 мс.
Размер потока : 68,3 Мбайт (7%)

Скриншоты меню

Скриншоты фильма


-
-Раздача от группы:
Показать сообщения:    

Текущее время: 18-Окт 06:41

Часовой пояс: UTC - 1


Вы не можете начинать темы
Вы не можете отвечать на сообщения
Вы не можете редактировать свои сообщения
Вы не можете удалять свои сообщения
Вы не можете голосовать в опросах
Вы не можете прикреплять файлы к сообщениям
Вы не можете скачивать файлы

!ВНИМАНИЕ!
Сайт не предоставляет электронные версии произведений, а занимается лишь коллекционированием и каталогизацией ссылок, присылаемых и публикуемых на форуме нашими читателями. Если вы являетесь правообладателем какого-либо представленного материала и не желаете, чтобы ссылка на него находилась в нашем каталоге, свяжитесь с нами, и мы незамедлительно удалим ее. Файлы для обмена на трекере предоставлены пользователями сайта, и администрация не несет ответственности за их содержание. Просьба не заливать файлы, защищенные авторскими правами, а также файлы нелегального содержания!