Ивановский Торрент трекер
Яндекс.Погода
 

[Цитировать]
HUNTER

Мангака и ассистентки / Mangaka-san to Assistant-san to
Страна: Япония
Год выпуска: 2014 г.
Жанр: комедия
Тип: Special
Продолжительность: 10 мин. (6 эп.)
Режиссер: Фурута Такеши
Студия: ZEXCS
Описание: История рассказывает о тяжёлых буднях незадачливого мангаки, который сочиняет и рисует полухентайную мангу. Ему помогает чем может его ассистентка - фоны красит, ретуширует и зачастую выполняет... более экзотические просьбы. А вот в остальном жизнь не сахар. Редактор-тян постоянно прессует беднягу и угрожает физической расправой, когда близятся сроки сдачи главы. Затем в коллектив вливается горячая поклонница манги нашего героя, которую взяли на подработку исключительно за красивые глаза (минус к зарплате, а толку — ноль). Ну и наконец происходит судьбоносная встреча с гениальной лолей, которая будет делать мангу из тех порнокомиксов, что ваяет главный герой. Также в ролях: сестричка ассистентки; главред журнала — тролль-90-левел-тян; другие мангаки и их редакторы, которые всё равно не попадут в экранизацию; юное протеже нашего героя (см. пред. пункт); а также его исключительно талантливый кот, порой подменяющий своего хозяина, коли дедлайн близко.
Качество: BDRip
Тип релиза: Без хардсаба
Формат видео: MP4
Наличие линковки: Нет
Релиз/Автор рипа: volta_john
Видео: H264, 1280x720, 8bits, 1245kbps, 23.976fps
Аудио: AAC, 2ch, 191kbps, 48kHz Язык Японский
Субтитры: ass, отдельным файлом Язык субтитров русский ; Перевод: LookerA
Подробные тех. данные
Format : MPEG-4Format profile : Base MediaCodec ID : isomFile size : 105 MiBDuration : 10mn 11sOverall bit rate mode : VariableOverall bit rate : 1 440 KbpsEncoded date : UTC 2014-06-28 10:57:19Tagged date : UTC 2014-06-28 10:57:19Writing application : Yamb 2.1.0.0
VideoID : 1Format : AVCFormat/Info : Advanced Video CodecFormat profile : High@L3.1Format settings, CABAC : YesFormat settings, ReFrames : 4 framesCodec ID : avc1Codec ID/Info : Advanced Video CodingDuration : 10mn 11sBit rate : 1 242 KbpsMaximum bit rate : 8 049 KbpsWidth : 1 280 pixelsHeight : 720 pixelsDisplay aspect ratio : 16:9Frame rate mode : ConstantFrame rate : 23.976 fpsColor space : YUVChroma subsampling : 4:2:0Bit depth : 8 bitsScan type : ProgressiveBits/(Pixel*Frame) : 0.056Stream size : 90.7 MiB (86%)Writing library : x264 core 133 r2334 a3ac64bEncoding settings : cabac=1 / ref=3 / deblock=1:0:0 / analyse=0x3:0x113 / me=hex / subme=7 / psy=1 / psy_rd=1.00:0.00 / mixed_ref=1 / me_range=16 / chroma_me=1 / trellis=1 / 8x8dct=1 / cqm=0 / deadzone=21,11 / fast_pskip=1 / chroma_qp_offset=-2 / threads=18 / lookahead_threads=3 / sliced_threads=0 / nr=0 / decimate=1 / interlaced=0 / bluray_compat=0 / constrained_intra=0 / bframes=3 / b_pyramid=2 / b_adapt=1 / b_bias=0 / direct=1 / weightb=1 / open_gop=0 / weightp=2 / keyint=250 / keyint_min=23 / scenecut=40 / intra_refresh=0 / rc_lookahead=40 / rc=2pass / mbtree=1 / bitrate=1242 / ratetol=1.0 / qcomp=0.60 / qpmin=0 / qpmax=69 / qpstep=4 / cplxblur=20.0 / qblur=0.5 / ip_ratio=1.40 / aq=1:1.00Encoded date : UTC 2014-06-24 17:23:09Tagged date : UTC 2014-06-28 10:57:21
AudioID : 2Format : AACFormat/Info : Advanced Audio CodecFormat profile : LCCodec ID : 40Duration : 10mn 11sBit rate mode : VariableBit rate : 192 KbpsMaximum bit rate : 233 KbpsChannel count : 2 channelsChannel positions : Front: L RSampling rate : 48.0 KHzCompression mode : LossyDelay relative to video : 83msStream size : 13.9 MiB (13%)Language : Japanese
Список эпизодов
1. Ashisu-san's day off
Скриншоты
0 человек читают эту тему: 0 пользователей, 0 скрытых пользователей, 0 гостей

Показать сообщения:    

Текущее время: 23-Авг 22:27

Часовой пояс: UTC - 1


Вы не можете начинать темы
Вы не можете отвечать на сообщения
Вы не можете редактировать свои сообщения
Вы не можете удалять свои сообщения
Вы не можете голосовать в опросах
Вы не можете прикреплять файлы к сообщениям
Вы не можете скачивать файлы

!ВНИМАНИЕ!
Сайт не предоставляет электронные версии произведений, а занимается лишь коллекционированием и каталогизацией ссылок, присылаемых и публикуемых на форуме нашими читателями. Если вы являетесь правообладателем какого-либо представленного материала и не желаете, чтобы ссылка на него находилась в нашем каталоге, свяжитесь с нами, и мы незамедлительно удалим ее. Файлы для обмена на трекере предоставлены пользователями сайта, и администрация не несет ответственности за их содержание. Просьба не заливать файлы, защищенные авторскими правами, а также файлы нелегального содержания!