Важное объявление!
У Нас Все раздачи мультитрекерные, при нуле пиров в релизах, можете смело вставать на закачку!
 
Автор Сообщение

HUNTER

Стаж:
4 года 8 месяцев
Сообщений:
61985

Репутация: 101

[+] [-]
Вне форума [Профиль] [ЛС]

Мамочка / Мама / Матушка / Мамаша / Mom
Страна: США
Жанр: ужасы, комедия
Год выпуска: 1991
Продолжительность: 01:36:26
Перевод: Профессиональный (двухголосый закадровый) НТВ+
Перевод 2 (Одноголосый любительский) Котов
Cубтитры: нет
Оригинальная аудиодорожка: английский
Режиссер: Патрик Рэнд / Patrick Rand
В ролях: Брайон Джеймс, Марай Айрес, Джинн Бейтс, Джули Брайант, Билл Чандлер, Сара Чандлер, Тами Ли Дэвис, Арт Эванс, Венди Гордон
Описание: Женщину на автобусной остановке высаживает таксист, причём, бесцеремонно, что наводит на мысль о её принадлежности к представительницам древнейшей профессии. На остановке стоял слепой мужик, и женщина стала ему намекать о том, что неплохо бы потрахаться. Когда они легли в позу, он снял очки, и оказалось, что он вовсе не слеп. Просто он прятал свои звериные глаза. Мужик стал быстро меняться и превратился в существо наподобие оборотня. Естественно, женщина умерла. Это было не первое убийство. Подобное уже происходило и не раз. К милой старой леди, которая отмечала какое-то торжество, постучал мужик, который сказал, что пришёл сюда по поводу объявления о сдаче жилья. Бабушка приветливо встретила гостя, который оказался длинноволосым мужчиной со звериным взглядом. Это был наш новый знакомый. В момент, когда сына женщины не было дома, он, воспользовавшись ситуацией, укусил её, превратил в такое же создание. Теперь они вместе будут выискивать жертвы для своих пиршеств. Сын заражённой, когда узнал про это, стал всячески способствовать тому , чтобы этот беспредел закончился. Но не так-то просто пойти против своей матери. Хотя она и монстр, но всё-таки родная кровинушка…
Вполне возможно, что Питер Джексон использовал данную сюжетную линию для своей Живой мертвячины. В остальном, этот фильм ничем особенным не выделяется. Есть кровь, хороший грим и недурные спецэффекты.Выпущено студией Epic Productions, Smoking Gun.
Доп. информация: Русские звуковые дорожки взяты с этих раздач http://rutracker.org/forum/viewtopic.php?t=4516079 http://rutracker.org/forum/viewtopic.php?t=3331088 авторам большое спасибо.
За синхронизацию огромное спасибо Нордер.
При пересборе двд были использованы программы:
PgcDemux - разделение компонентов диска на файлы
Muxman - мультиплексирование и авторинг DVD
VobBlanker - реавторинг DVD

Скриншоты сравнения

Сэмпл: http://sendfile.su/1092687
Качество видео:DVD5 (Custom)
Формат видео: DVD Video
Видео: NTSC 4:3 (720x480) VBR
Аудио: Russian (Dolby AC3, 192 Кбит/сек, 2 ch)
Аудио 2: Russian (Dolby AC3, 192 Кбит/сек, 2 ch)
Аудио 3: English (Dolby AC3, 192 Кбит/сек, 2 ch)

DVDInfo

Size: 3.67 Gb ( 3 844 954 KBytes ) - DVD-5
Enabled regions: 1, 2, 3, 4, 5, 6, 7, 8
VTS_01 :
Play Length: 01:37:06
Video: NTSC 4:3 (720x480) VBR
Audio:
Russian (Dolby AC3, 2 ch)
Romanian (Dolby AC3, 2 ch)
English (Dolby AC3, 2 ch)
Menu Video:
NTSC 4:3 (720x480) VBR
Menu Subtitles:
Not specified
Menu Language Unit :
Root Menu

MediaInfo

Общее
Полное имя : K:\Mom(1991)\VIDEO_TS\VTS_01_1.VOB
Формат : MPEG-PS
Размер файла : 1024 Мбайт
Продолжительность : 25 м.
Режим общего битрейта : Переменный
Общий поток : 5549 Кбит/сек
Видео
Идентификатор : 224 (0xE0)
Формат : MPEG Video
Версия формата : Version 2
Профиль формата : Main@Main
Параметр BVOP формата : Да
Параметр матрицы формата : По умолчанию
Параметр GOP формата : M=3, N=15
Продолжительность : 25 м.
Вид битрейта : Переменный
Битрейт : 4799 Кбит/сек
Максимальный битрейт : 6600 Кбит/сек
Ширина : 720 пикселей
Высота : 480 пикселей
Соотношение сторон : 4:3
Частота кадров : 29,970 кадров/сек
Стандарт вещания : NTSC
Цветовое пространство : YUV
Субдискретизация насыщенности : 4:2:0
Битовая глубина : 8 бит
Тип развёртки : Чересстрочная
Порядок развёртки : Верхнее поле первое
Метод сжатия : С потерями
Бит/(Пиксели*Кадры) : 0.463
Размер потока : 886 Мбайт (86%)
Аудио #1
Идентификатор : 189 (0xBD)-128 (0x80)
Формат : AC-3
Формат/Информация : Audio Coding 3
Расширение режима : CM (complete main)
Параметр Endianness формата : Big
Режим смешивания : DVD-Video
Продолжительность : 25 м.
Вид битрейта : Постоянный
Битрейт : 192 Кбит/сек
Каналы : 2 канала
Расположение каналов : Front: L R
Частота : 48,0 КГц
Битовая глубина : 16 бит
Метод сжатия : С потерями
Задержка видео : -66 мс.
Размер потока : 35,4 Мбайт (3%)
Аудио #2
Идентификатор : 189 (0xBD)-129 (0x81)
Формат : AC-3
Формат/Информация : Audio Coding 3
Расширение режима : CM (complete main)
Параметр Endianness формата : Big
Режим смешивания : DVD-Video
Продолжительность : 25 м.
Вид битрейта : Постоянный
Битрейт : 192 Кбит/сек
Каналы : 2 канала
Расположение каналов : Front: L R
Частота : 48,0 КГц
Битовая глубина : 16 бит
Метод сжатия : С потерями
Задержка видео : -66 мс.
Размер потока : 35,4 Мбайт (3%)
Аудио #3
Идентификатор : 189 (0xBD)-130 (0x82)
Формат : AC-3
Формат/Информация : Audio Coding 3
Расширение режима : CM (complete main)
Параметр Endianness формата : Big
Режим смешивания : DVD-Video
Продолжительность : 25 м.
Вид битрейта : Постоянный
Битрейт : 256 Кбит/сек
Каналы : 2 канала
Расположение каналов : Front: L R
Частота : 48,0 КГц
Битовая глубина : 16 бит
Метод сжатия : С потерями
Задержка видео : -66 мс.
Размер потока : 47,2 Мбайт (5%)
Текст
Идентификатор : 224 (0xE0)-CC3
Формат : EIA-608
Режим смешивания : DVD-Video
Режим смешивания, доп. информация : Muxed in Video #1
Вид битрейта : Постоянный
Размер потока : 0,00 байт (0%)
Меню

Постер


_________________
Показать сообщения:    

Текущее время: Сегодня 05:46

Часовой пояс: GMT



Вы не можете начинать темы
Вы не можете отвечать на сообщения
Вы не можете редактировать свои сообщения
Вы не можете удалять свои сообщения
Вы не можете голосовать в опросах
Вы не можете прикреплять файлы к сообщениям
Вы не можете скачивать файлы
Наши партнеры: интернет магазин Ивановского трикотажа textilla.ru