Мама / Mama (Андрес Мускетти / Andres Muschietti) [2013, Испания, Канада, ужасы, фэнтези, триллер, BDRip 1080p] VO (VANO) + Original Eng + Sub Eng :: Ивановский Торрент трекер
Важное объявление!
У Нас Все раздачи мультитрекерные, при нуле пиров в релизах, можете смело вставать на закачку!
Статистика раздачи
Размер:     |    Зарегистрирован:     |    Скачан:     |   
Нет
 
     
 
 
Автор Сообщение

димитри37

Стаж:
4 года 3 месяца
Сообщений:
1236

Репутация: 127

[+] [-]
Вне форума [Профиль] [ЛС]

Мама / Mama
Страна: Испания, Канада
Жанр: ужасы, фэнтези, триллер
Год выпуска: 2013
Продолжительность: 01:40:06
Перевод: Одноголосый закадровый [VANO]
Cубтитры: English / French / Spanish
Оригинальная аудиодорожка: английский
Режиссер: Андрес Мускетти / Andr�s Muschietti
В ролях: Джессика Честейн, Николай Костер-Вальдау, Меган Чарпентье, Изабель Нелисс, Дэниэл Кэш, Хавьер Ботет, Джейн Моффат, Морган МакГарри, Дэвид Фокс, Доминик Куццокреа, Кристофер Маррен, Джулия Шантри
Описание: В заброшенной хижине в чаще леса найдены две девочки. Таинственным образом они прожили в пустом доме пять лет. Найденных сирот забирают единственные родственники, молодая супружеская пара. Но девочки не одиноки, у них есть мама, и она приходит из тьмы...

Сэмпл: http://multi-up.com/860605
Качество видео: BDRip
Формат видео: MKV
Видео:MPEG4 Video (H264), 1920x1040, (16:9), 23.976 fps, 12.2 Mbps, 0.26 bit/pixel
Аудио 1: Русский / Dolby Digital Audio / 48 kHz / 2 ch / 192.00 kbps avg
Аудио 2: Eng / DTS / 5.1 / 48 kHz / 6 ch / 1536 kbps / 24-bit
Аудио 3: Eng / Vorbis / 48 kHz / 2 ch / 53. 3 kbps - Commentary With Director/Writer Andr�s And Barbara Muschietti
убрал ненужную дорогу, перезалейте

MediaInfo

General
Unique ID : 243911440372445695457751486029255471138 (0xB77FA27A55E2EA40AA632C6B1654F022)
Complete name : C:mama.2013.1040p.BDRip.mkv
Format : Matroska
Format version : Version 4 / Version 2
File size : 9.96 GiB
Duration : 1h 40mn
Overall bit rate mode : Variable
Overall bit rate : 14.3 Mbps
Encoded date : UTC 2013-04-30 08:14:15
Writing application : mkvmerge v6.2.0 ('Promised Land') built on Apr 28 2013 12:22:01
Writing library : libebml v1.3.0 + libmatroska v1.4.0
Video
ID : 1
Format : AVC
Format/Info : Advanced Video Codec
Format profile : High@L4.1
Format settings, CABAC : Yes
Format settings, ReFrames : 4 frames
Codec ID : V_MPEG4/ISO/AVC
Duration : 1h 40mn
Bit rate : 12.2 Mbps
Width : 1 920 pixels
Height : 1 040 pixels
Display aspect ratio : 1.85:1
Frame rate mode : Constant
Frame rate : 23.976 fps
Color space : YUV
Chroma subsampling : 4:2:0
Bit depth : 8 bits
Scan type : Progressive
Bits/(Pixel*Frame) : 0.255
Stream size : 8.54 GiB (86%)
Writing library : x264 core 130 r2273 b3065e6
Encoding settings : cabac=1 / ref=4 / deblock=1:-3:-3 / analyse=0x3:0x113 / me=umh / subme=10 / psy=1 / psy_rd=1.00:0.00 / mixed_ref=1 / me_range=32 / chroma_me=1 / trellis=2 / 8x8dct=1 / cqm=0 / deadzone=21,11 / fast_pskip=1 / chroma_qp_offset=-2 / threads=18 / lookahead_threads=3 / sliced_threads=0 / nr=0 / decimate=1 / interlaced=0 / bluray_compat=0 / constrained_intra=0 / bframes=8 / b_pyramid=2 / b_adapt=2 / b_bias=0 / direct=3 / weightb=1 / open_gop=0 / weightp=2 / keyint=240 / keyint_min=23 / scenecut=40 / intra_refresh=0 / rc_lookahead=60 / rc=crf / mbtree=0 / crf=17.0 / qcomp=1.00 / qpmin=0 / qpmax=69 / qpstep=4 / vbv_maxrate=50000 / vbv_bufsize=50000 / crf_max=0.0 / nal_hrd=none / ip_ratio=1.30 / pb_ratio=1.20 / aq=2:0.80
Language : English
Default : Yes
Forced : No
Audio #1
ID : 2
Format : AC-3
Format/Info : Audio Coding 3
Mode extension : CM (complete main)
Format settings, Endianness : Big
Codec ID : A_AC3
Duration : 1h 40mn
Bit rate mode : Constant
Bit rate : 192 Kbps
Channel(s) : 2 channels
Channel positions : Front: L R
Sampling rate : 48.0 KHz
Bit depth : 16 bits
Compression mode : Lossy
Stream size : 137 MiB (1%)
Language : Russian
Default : No
Forced : No
Audio #2
ID : 3
Format : DTS
Format/Info : Digital Theater Systems
Mode : 16
Format settings, Endianness : Big
Codec ID : A_DTS
Duration : 1h 40mn
Bit rate mode : Constant
Bit rate : 1 509 Kbps
Channel(s) : 6 channels
Channel positions : Front: L C R, Side: L R, LFE
Sampling rate : 48.0 KHz
Bit depth : 24 bits
Compression mode : Lossy
Stream size : 1.06 GiB (11%)
Language : English
Default : No
Forced : No
Audio #3
ID : 4
Format : Vorbis
Format settings, Floor : 1
Codec ID : A_VORBIS
Duration : 1h 40mn
Bit rate mode : Variable
Bit rate : 53.3 Kbps
Channel(s) : 2 channels
Sampling rate : 48.0 KHz
Compression mode : Lossy
Stream size : 38.1 MiB (0%)
Writing library : aoTuV 20110424 (UTC 2011-04-24)
Language : English
Default : No
Forced : No
Text #1
ID : 5
Format : VobSub
Muxing mode : zlib
Codec ID : S_VOBSUB
Codec ID/Info : The same subtitle format used on DVDs
Language : English
Default : No
Forced : No
Text #2
ID : 6
Format : VobSub
Muxing mode : zlib
Codec ID : S_VOBSUB
Codec ID/Info : The same subtitle format used on DVDs
Language : French
Default : No
Forced : No
Text #3
ID : 7
Format : VobSub
Muxing mode : zlib
Codec ID : S_VOBSUB
Codec ID/Info : The same subtitle format used on DVDs
Language : Spanish
Default : No
Forced : No
Menu
00:00:00.000 : en:00:00:00.000
00:04:57.881 : en:00:04:57.881
00:11:47.165 : en:00:11:47.165
00:17:33.761 : en:00:17:33.761
00:20:51.417 : en:00:20:51.417
00:26:08.734 : en:00:26:08.734
00:32:02.796 : en:00:32:02.796
00:36:53.169 : en:00:36:53.169
00:40:12.535 : en:00:40:12.535
00:44:43.222 : en:00:44:43.222
00:47:35.186 : en:00:47:35.186
00:53:04.390 : en:00:53:04.390
00:58:55.282 : en:00:58:55.282
01:04:38.166 : en:01:04:38.166
01:11:00.339 : en:01:11:00.339
01:16:49.146 : en:01:16:49.146
01:22:00.999 : en:01:22:00.999
01:25:14.526 : en:01:25:14.526
01:29:15.058 : en:01:29:15.058
01:35:29.349 : en:01:35:29.349

Скриншот c названием фильма

Скриншоты

Показать сообщения:    

Текущее время: Сегодня 15:59

Часовой пояс: GMT



Вы не можете начинать темы
Вы не можете отвечать на сообщения
Вы не можете редактировать свои сообщения
Вы не можете удалять свои сообщения
Вы не можете голосовать в опросах
Вы не можете прикреплять файлы к сообщениям
Вы не можете скачивать файлы