Важное объявление!
У Нас Все раздачи мультитрекерные, при нуле пиров в релизах, можете смело вставать на закачку!
 
Автор Сообщение

HUNTER

Стаж:
4 года 9 месяцев
Сообщений:
65008

Репутация: 101

[+] [-]
Вне форума [Профиль] [ЛС]

Мама поневоле -Год выпуска: 2012
Страна: Россия
Жанр: Мелодрама
Продолжительность: 02:00:47
Перевод: Не требуется (русский)
Субтитры: Отсутствуют-В ролях: Ирина Гринева, Игорь Верник, Сергей Калантай, Вероника Вернадская, Алена Колесниченко, Станислав Мельник, Антонина Макарчук, Наталья Ляшенко, Станислав Москвин, Юрий Потапенко, Людмила Дементьева, Валерий Антонюк, Ирина Светлякова, Евгений Казанцев, Петр Бойко, Константин Данилюк, Екатерина Уварова, Евгения Шевцова, Алла Бинеева, Алина Головлева, Сергей Краско, Полина Сахацкая, Маргарита Морозюк, Александр Решетняк (II), Юрий Галинин
Режиссёр: Ева Стрельникова-Описание: У пятнадцатилетней Юли в автокатастрофе погибает мать. Опекунство поручают родной тете девочки - преуспевающему хирургу, но очень одинокой женщине Татьяне Смирновой. Юля винит Татьяну в смерти матери и поэтому между ними нарастает серьезный конфликт. Но тут в их жизни появляется Игорь Воронцов - отец Юли. Игорь в прошлом известный джазовый музыкант, а сейчас всего лишь трубач на похоронах. Его появление в жизни девочки и Татьяны очень влияет на ход событий этой, казалось бы заурядной жизненной ситуации...-Качество: IPTVRip
Формат: avi
Видео кодек: Xvid
Аудио кодек: MP3
Видео: 720x400, ~1904 Кбит/с , 25 fps, 0.26 bit/pixel
Аудио: 192 Кбит/с, 2 канала, 48кГц-

MediaInfo:

Код: copyText_writeLink('this.parentNode.parentNode.nextSibling.nextSibling'); Общее
Полное имя : Mama.ponevole.2012.XviD.IPTVRip.avi
Формат : AVI
Формат/Информация : Audio Video Interleave
Размер файла : 1,78 Гбайт
Продолжительность : 2 ч. 0 м.
Общий поток : 2105 Кбит/сек
Программа кодирования : VirtualDubModRus 1.5.10.2 (build 2540/release)
Видео
Идентификатор : 0
Формат : MPEG-4 Visual
Профиль формата : Advanced Simple@L5
Параметр BVOP формата : 1
Параметр QPel формата : Нет
Параметр GMC формата : Без точки перехода
Параметр матрицы формата : Default (H.263)
Идентификатор кодека : XVID
Идентификатор кодека/Подсказка : XviD
Продолжительность : 2 ч. 0 м.
Битрейт : 1904 Кбит/сек
Ширина : 720 пикселей
Высота : 400 пикселей
Соотношение сторон : 16:9
Частота кадров : 25,000 кадров/сек
Цветовое пространство : YUV
Субдискретизация насыщенности : 4:2:0
Битовая глубина : 8 бит
Тип развёртки : Прогрессивная
Метод сжатия : С потерями
Бит/(Пиксели*Кадры) : 0.264
Размер потока : 1,61 Гбайт (90%)
Библиотека кодирования : XviD 1.2.1 (UTC 2008-12-04)
Аудио
Идентификатор : 1
Формат : MPEG Audio
Версия формата : Version 1
Профиль формата : Layer 3
Идентификатор кодека : 55
Идентификатор кодека/Подсказка : MP3
Продолжительность : 2 ч. 0 м.
Вид битрейта : Постоянный
Битрейт : 192 Кбит/сек
Каналы : 2 канала
Частота : 48,0 КГц
Метод сжатия : С потерями
Размер потока : 166 Мбайт (9%)
Выравнивание : Соединение по промежуткам
Продолжительность промежутка : 40 мс. (1,00 видеокадр)
Время предзагрузки промежутка : 504 мс.
Библиотека кодирования : LAME3.98r
Настройки программы : -m s -V 4 -q 2 -lowpass 18.6 -b 192
-

Скриншоты


_________________
Показать сообщения:    

Текущее время: Сегодня 09:58

Часовой пояс: GMT



Вы не можете начинать темы
Вы не можете отвечать на сообщения
Вы не можете редактировать свои сообщения
Вы не можете удалять свои сообщения
Вы не можете голосовать в опросах
Вы не можете прикреплять файлы к сообщениям
Вы не можете скачивать файлы