Важное объявление!
У Нас Все раздачи мультитрекерные, при нуле пиров в релизах, можете смело вставать на закачку!
Статистика раздачи
Размер:     |    Зарегистрирован:     |    Скачан:     |   
Нет
 
     
 
 
Автор Сообщение

HUNTER

Стаж:
5 лет
Сообщений:
67968

Репутация: 101

[+] [-]
Вне форума [Профиль] [ЛС]

Мама и папа спасают мир / Мама и папа, спасите мир! / Mom and Dad Save the World
Страна: США
Студия: Cinema Plus, Douglas, Home Box Office (HBO)
Жанр: Комедия, Фантастика, Семейный
Год выпуска: 1992
Продолжительность: 01:28:03
Перевод 1: Профессиональный (многоголосый закадровый)
Перевод 2: Авторский (одноголосый закадровый) А.Михалев
Cубтитры: английские
Оригинальная аудиодорожка: английский
Режиссер: Грег Биман /Greg Beeman
В ролях: Тери Гарр, Джеффри Джоунс, Джон Ловитц, Талмус Расулала, Уоллес Шон, Эрик Айдл, Дуайер Браун, Кэти Айрлэнд, Сюзанн Венталетт, Майкл Стоянов, Дэнни Кукси (Teri Garr, Jeffrey Jones, Jon Lovitz, Thalmus Rasulala, Wallace Shawn, Eric Idle, Dwier Brown, Kathy Ireland, Suzanne Ventulett, Michael Stoyanov, Danny Cooksey)
Описание: Император Планеты Идиотов мечтает уничтожить Землю и захватить власть во Вселенной. Однако, прежде чем это сделать, он желает жениться на землянке Марч, похищенной им вместе с ее не очень сообразительным мужем Диком. К счастью, Дику удается сбежать из императорского плена. Мало того, даже его "одной извилины" оказывается достаточно для того, чтобы заручившись поддержкой соответствующих названию своей планеты местных жителей, организовать освободительную битву и одолеть злодея-императора.
Доп. информация: Автор рипа - FiestaRed. Добавлены две русские дорожки. Многоголосый перевод неизвестного происхождения взят из раздачи dmitry2264. Авторский перевод А.Михалева взят из раздачи _int_. Так же добавлены английские субтитры, взятые с DVD R1. Большое спасибо всем предоставившим материалы!
Сэмпл
Тип релиза: HDTVRip 720p
Контейнер: MKV
Видео: 1280x720p (16:9), 23,976 fps, x264, 6712 kbps
Аудио 1: Russian - MVO (Dolby AC3, 2 ch) 192 Kbps / 48 000 Hz
Аудио 2: Russian - Михалев (Dolby AC3, 2 ch) 192 Kbps / 48 000 Hz
Аудио 3: English (Dolby AC3, 2 ch) 192 Kbps / 48 000 Hz
Субтитры: English

MediaInfo

Уникальный идентификатор : 247456476838413358945319350873160692946 (0xBA2A62452514DE0C8FE9645AC25834D2)
Полное имя : Mom.and.Dad.Save.the.World.(1992).HDTVRip.720p.x264.RUS.ENG.AC3.mkv
Формат : Matroska
Версия формата : Version 4 / Version 2
Размер файла : 4,48 Гбайт
Продолжительность : 1 ч. 28 м.
Общий поток : 7288 Кбит/сек
Название фильма : Mom and Dad Save the World (1992) HDTVRip 720p
Дата кодирования : UTC 2015-01-02 12:15:55
Программа кодирования : mkvmerge v7.4.0 ('Circles') 32bit built on Dec 12 2014 12:10:09
Библиотека кодирования : libebml v1.3.0 + libmatroska v1.4.1
DURATION : 01:17:04.782000000
NUMBER_OF_FRAMES : 1077
NUMBER_OF_BYTES : 31058
_STATISTICS_WRITING_APP : mkvmerge v7.4.0 ('Circles') 32bit built on Dec 12 2014 12:10:09
_STATISTICS_WRITING_DATE_UTC : 2015-01-02 12:15:55
_STATISTICS_TAGS : BPS DURATION NUMBER_OF_FRAMES NUMBER_OF_BYTES
Видео
Идентификатор : 1
Формат : AVC
Формат/Информация : Advanced Video Codec
Профиль формата : High@L4.1
Параметр CABAC формата : Да
Параметр ReFrames формата : 9 кадров
Идентификатор кодека : V_MPEG4/ISO/AVC
Продолжительность : 1 ч. 28 м.
Битрейт : 6712 Кбит/сек
Ширина : 1280 пикселей
Высота : 720 пикселей
Соотношение сторон : 16:9
Режим частоты кадров : Постоянный
Частота кадров : 23,976 кадра/сек
Цветовое пространство : YUV
Субдискретизация насыщенности : 4:2:0
Битовая глубина : 8 бит
Тип развёртки : Прогрессивная
Бит/(Пиксели*Кадры) : 0.304
Размер потока : 4,04 Гбайт (90%)
Библиотека кодирования : x264 core 142 r2431 ac76440
Настройки программы : cabac=1 / ref=9 / deblock=1:-3:-3 / analyse=0x3:0x113 / me=umh / subme=9 / psy=1 / psy_rd=1.10:0.00 / mixed_ref=1 / me_range=32 / chroma_me=1 / trellis=2 / 8x8dct=1 / cqm=0 / deadzone=21,11 / fast_pskip=0 / chroma_qp_offset=-2 / threads=6 / lookahead_threads=1 / sliced_threads=0 / nr=0 / decimate=1 / interlaced=0 / bluray_compat=0 / constrained_intra=0 / bframes=6 / b_pyramid=2 / b_adapt=2 / b_bias=0 / direct=3 / weightb=1 / open_gop=0 / weightp=2 / keyint=240 / keyint_min=23 / scenecut=40 / intra_refresh=0 / rc_lookahead=50 / rc=2pass / mbtree=0 / bitrate=6712 / ratetol=1.0 / qcomp=0.60 / qpmin=10 / qpmax=51 / qpstep=4 / cplxblur=20.0 / qblur=0.5 / vbv_maxrate=62500 / vbv_bufsize=78125 / nal_hrd=none / filler=0 / ip_ratio=1.40 / pb_ratio=1.30 / aq=1:1.00
Язык : English
Default : Да
Forced : Нет
DURATION : 01:28:03.070000000
NUMBER_OF_FRAMES : 126667
NUMBER_OF_BYTES : 4430788080
_STATISTICS_WRITING_APP : mkvmerge v7.4.0 ('Circles') 32bit built on Dec 12 2014 12:10:09
_STATISTICS_WRITING_DATE_UTC : 2015-01-02 12:15:55
_STATISTICS_TAGS : BPS DURATION NUMBER_OF_FRAMES NUMBER_OF_BYTES
Аудио #1
Идентификатор : 2
Формат : AC-3
Формат/Информация : Audio Coding 3
Расширение режима : CM (complete main)
Параметр Endianness формата : Big
Идентификатор кодека : A_AC3
Продолжительность : 1 ч. 28 м.
Вид битрейта : Постоянный
Битрейт : 192 Кбит/сек
Каналы : 2 канала
Расположение каналов : Front: L R
Частота : 48,0 КГц
Битовая глубина : 16 бит
Метод сжатия : С потерями
Размер потока : 121 Мбайт (3%)
Заголовок : MVO
Язык : Russian
Default : Да
Forced : Нет
Аудио #2
Идентификатор : 3
Формат : AC-3
Формат/Информация : Audio Coding 3
Расширение режима : CM (complete main)
Параметр Endianness формата : Big
Идентификатор кодека : A_AC3
Продолжительность : 1 ч. 28 м.
Вид битрейта : Постоянный
Битрейт : 192 Кбит/сек
Каналы : 2 канала
Расположение каналов : Front: L R
Частота : 48,0 КГц
Битовая глубина : 16 бит
Метод сжатия : С потерями
Размер потока : 121 Мбайт (3%)
Заголовок : Михалев
Язык : Russian
Default : Нет
Forced : Нет
Аудио #3
Идентификатор : 4
Формат : AC-3
Формат/Информация : Audio Coding 3
Расширение режима : CM (complete main)
Параметр Endianness формата : Big
Идентификатор кодека : A_AC3
Продолжительность : 1 ч. 28 м.
Вид битрейта : Постоянный
Битрейт : 192 Кбит/сек
Каналы : 2 канала
Расположение каналов : Front: L R
Частота : 48,0 КГц
Битовая глубина : 16 бит
Метод сжатия : С потерями
Размер потока : 121 Мбайт (3%)
Заголовок : Original
Язык : English
Default : Нет
Forced : Нет
Текст
Идентификатор : 5
Формат : UTF-8
Идентификатор кодека : S_TEXT/UTF8
Идентификатор кодека/Информация : UTF-8 Plain Text
Язык : English
Default : Нет
Forced : Нет

Скриншоты


_________________
Показать сообщения:    

Текущее время: Сегодня 12:52

Часовой пояс: GMT



Вы не можете начинать темы
Вы не можете отвечать на сообщения
Вы не можете редактировать свои сообщения
Вы не можете удалять свои сообщения
Вы не можете голосовать в опросах
Вы не можете прикреплять файлы к сообщениям
Вы не можете скачивать файлы