Важное объявление!
У Нас Все раздачи мультитрекерные, при нуле пиров в релизах, можете смело вставать на закачку!
 
Автор Сообщение

HUNTER

Стаж:
4 года 7 месяцев
Сообщений:
61614

Репутация: 101

[+] [-]
Вне форума [Профиль] [ЛС]

Мальчики / Jongens / Boys
Страна:НидерландыСтудия:Pupkin Film.Жанр:Драма, Мелодрама, Романтика, Гей-темаГод выпуска:2014
Продолжительность:01:17:06Перевод 1:Многолосый закадровый ПричудикиПеревод 2:Одноголосый закадровый)В. Кошкин
Cубтитры:Английские, Испанские
Премьера (мир):9.02.2014
Режиссер:Миша Камп / Mischa KampВ ролях:Хайс Блом, Ко Зондфлит, Йонас Смулдерс, Тон Кас, Stijn Taverne, Myron Wouts, Ferdi Stofmeel, Lotte Razoux Schultz, Рейчел Вердель, Julia Akkermans
Описание:История Сигера, спортивного и довольно тихого 15-летнего мальчика, который, во время подготовки к соревнованиям по легкой атлетике, неожиданно начинает испытывать чувства к одному из членов его команды — Марку… Доп. информация:Исходник найден в сети.Многоголосый закадровый Причудикивзят из раздачи s_prichudami-[url=viewtopic.php?t=5099820]viewtopic.php?t=5099820[/url].Одноголосый закадровый В.Кошкинвзят из раздачи KirillIvanov-[url=viewtopic.php?t=4751393]viewtopic.php?t=4751393[/url].Меню неотредактировано, переключение звуковых дорожек с пульта.Огромное Спасибо Всем, без чьей помощи этот релиз не состоялся бы!Сценарий:Jaap-Peter Enderle, Крис ВестендорпПродюсер:Питер Койперс, Ирис Оттен, Сандер ван МеурсОператор:Мелл ван ЭссенКомпозитор:Рутгер РейндерсХудожник:Мэрион Бут, Мариан ван НиувенхёйзенМонтаж:Катарина Турлер

Награды и номинации

Рецензия

Софт

PgcDemux 1.2.0.5 - разделение компонентов диска на файлы;
BeSweet+BeLight - mp3 -> Wav
Sound Forge pro 10 - Wav -> AC3
MuxMan DVD authoring Professional 1.4.4 - мультиплексирование и авторинг
DVDRemake Pro 3.6.4 - реавторинг DVD;
DVD Shrink 3.2 - Сэмпл
--
MVO VO
Меню:Нидерландский, статичнное, неозвученное.Сэмпл:https://www.sendspace.com/file/9lbvgoТип релиза:DVD5 (Custom)
Контейнер:DVD-Video
Видео:PAL 16:9 (720x576) VBR, Auto Letterboxed, 5161 Кбит/сек, 25,000 кадров/секАудио 1:Нидерландский:AC3, 2 ch, 48.0 KHz, 192 Кбит/сек / (Оригинал)Аудио 2:Нидерландский:AC3, 6 ch, 48.0 KHz, 448 Кбит/сек / (Оригинал)Аудио 3:Русский:AC3, 2 ch, 48.0 KHz, 192 Кбит/сек /Многоголосый закадровый) ПричудикиАудио 4:Русский:AC3, 2 ch, 48.0 KHz, 192 Кбит/сек / Одноголосый закадровый) В.Кошкин

Dvd Info

Title: W(media)
Size: 4.28 Gb ( 4 485 852 KBytes ) - DVD-5
Enabled regions: 1, 2, 3, 4, 5, 6, 8
VTS_01 :
Play Length:
Video: PAL 16:9 (720x576) VBR, Auto Letterboxed
Audio:
Nederlands (Dolby AC3, 2 ch)
VTS_02 :
Play Length: 01:17:06
Video: PAL 16:9 (720x576) VBR, Auto Letterboxed
Audio:
Nederlands (Dolby AC3, 2 ch)
Nederlands (Dolby AC3, 6 ch)
Russian (Dolby AC3, 2 ch)
Russian (Dolby AC3, 2 ch)
Subtitles:
English
Espanol
VTS_03 :
Play Length:
Video: PAL 16:9 (720x576) VBR, Auto Letterboxed
Audio:
Nederlands (Dolby AC3, 2 ch)
Nederlands (Dolby AC3, 2 ch)
Subtitles:
Nederlands
VTS_04 :
Play Length:
Video: PAL 16:9 (720x576) VBR, Auto Letterboxed
Audio:
Espanol (Dolby AC3, 2 ch)
Espanol (Dolby AC3, 2 ch)
Subtitles:
Nederlands
VTS_05 :
Play Length:
Video: PAL 16:9 (720x576) VBR, Auto Letterboxed
Audio:
English (Dolby AC3, 2 ch)
English (Dolby AC3, 2 ch)
Subtitles:
Nederlands

Mediainfo

Общее
Полное имя : F:\Jongens DVD-5_Custom\VIDEO_TS\VTS_02_3.VOB
Формат : MPEG-PS
Размер файла : 1024 Мбайт
Продолжительность : 21 м.
Режим общего битрейта : Переменный
Общий поток : 6666 Кбит/сек
Видео
Идентификатор : 224 (0xE0)
Формат : MPEG Video
Версия формата : Version 2
Профиль формата : Main@Main
Параметр BVOP формата : Да
Параметр матрицы формата : Выборочная
Параметр GOP формата : Variable
Структура изображения : Frame
Продолжительность : 21 м.
Вид битрейта : Переменный
Битрейт : 5509 Кбит/сек
Максимальный битрейт : 8000 Кбит/сек
Ширина : 720 пикселей
Высота : 576 пикселей
Соотношение сторон : 16:9
Частота кадров : 25,000 кадров/сек
Стандарт вещания : PAL
Цветовое пространство : YUV
Субдискретизация насыщенности : 4:2:0
Битовая глубина : 8 бит
Тип развёртки : Чересстрочная
Порядок развёртки : Верхнее поле первое
Метод сжатия : С потерями
Бит/(Пиксели*Кадры) : 0.531
Временной код первого кадра : 00:36:44:22
Оригинал временного кода : Group of pictures header
GOP, открыто/закрыто : Открыто
Размер потока : 846 Мбайт (83%)
Аудио #1
Идентификатор : 189 (0xBD)-128 (0x80)
Формат : AC-3
Формат/Информация : Audio Coding 3
Расширение режима : CM (complete main)
Параметр Endianness формата : Big
Режим смешивания : DVD-Video
Продолжительность : 21 м.
Вид битрейта : Постоянный
Битрейт : 192 Кбит/сек
Каналы : 2 канала
Расположение каналов : Front: L R
Частота : 48,0 КГц
Частота кадров : 31,250 кадров/сек (1536 spf)
Метод сжатия : С потерями
Задержка видео : -608 мс.
Размер потока : 29,5 Мбайт (3%)
Аудио #2
Идентификатор : 189 (0xBD)-129 (0x81)
Формат : AC-3
Формат/Информация : Audio Coding 3
Расширение режима : CM (complete main)
Параметр Endianness формата : Big
Режим смешивания : DVD-Video
Продолжительность : 21 м.
Вид битрейта : Постоянный
Битрейт : 448 Кбит/сек
Каналы : 6 каналов
Расположение каналов : Front: L C R, Side: L R, LFE
Частота : 48,0 КГц
Частота кадров : 31,250 кадров/сек (1536 spf)
Метод сжатия : С потерями
Задержка видео : -704 мс.
Размер потока : 68,8 Мбайт (7%)
Аудио #3
Идентификатор : 189 (0xBD)-130 (0x82)
Формат : AC-3
Формат/Информация : Audio Coding 3
Расширение режима : CM (complete main)
Параметр Endianness формата : Big
Режим смешивания : DVD-Video
Продолжительность : 21 м.
Вид битрейта : Постоянный
Битрейт : 192 Кбит/сек
Каналы : 2 канала
Расположение каналов : Front: L R
Частота : 48,0 КГц
Частота кадров : 31,250 кадров/сек (1536 spf)
Метод сжатия : С потерями
Задержка видео : -608 мс.
Размер потока : 29,5 Мбайт (3%)
Аудио #4
Идентификатор : 189 (0xBD)-131 (0x83)
Формат : AC-3
Формат/Информация : Audio Coding 3
Расширение режима : CM (complete main)
Параметр Endianness формата : Big
Режим смешивания : DVD-Video
Продолжительность : 21 м.
Вид битрейта : Постоянный
Битрейт : 192 Кбит/сек
Каналы : 2 канала
Расположение каналов : Front: L R
Частота : 48,0 КГц
Частота кадров : 31,250 кадров/сек (1536 spf)
Метод сжатия : С потерями
Задержка видео : -608 мс.
Размер потока : 29,5 Мбайт (3%)
Текст #1
Идентификатор : 189 (0xBD)-32 (0x20)
Формат : RLE
Формат/Информация : Run-length encoding
Режим смешивания : DVD-Video
Продолжительность : 21 м.
Задержка видео : 2 с. 480 мс.
Текст #2
Идентификатор : 189 (0xBD)-33 (0x21)
Формат : RLE
Формат/Информация : Run-length encoding
Режим смешивания : DVD-Video
Продолжительность : 21 м.
Задержка видео : 1 с. 520 мс.

Скриншоты меню


Скриншоты

Полиграфия




Релиз: Уважаемые пользователи!Найдите пару минут поблагодарить релизера и высказаться в топике раздачи.Ваше мнение - бальзам для раздающего и пища для ума остальным пользователям.[url=tracker.php?rid=15912358/]Мои раздачи[/url]

_________________
Показать сообщения:    

Текущее время: Сегодня 09:18

Часовой пояс: GMT



Вы не можете начинать темы
Вы не можете отвечать на сообщения
Вы не можете редактировать свои сообщения
Вы не можете удалять свои сообщения
Вы не можете голосовать в опросах
Вы не можете прикреплять файлы к сообщениям
Вы не можете скачивать файлы
Наши партнеры: интернет магазин Ивановского трикотажа textilla.ru