Важное объявление!
У Нас Все раздачи мультитрекерные, при нуле пиров в релизах, можете смело вставать на закачку!
Статистика раздачи
Размер:     |    Зарегистрирован:     |    Скачан:     |   
Нет
 
     
 
 
Автор Сообщение

димитри37

Стаж:
4 года 4 месяца
Сообщений:
1236

Репутация: 127

[+] [-]
Вне форума [Профиль] [ЛС]

Мальчики / Drenge / Boys
Страна: Дания
Жанр: драма
Год выпуска: 1977
Продолжительность: 01:21:09
Перевод: Авторский (одноголосый закадровый) Сергей Кузнецов
Cубтитры: английские
Оригинальная аудиодорожка: датский
Режиссер: Нильс Мальмрос / Nils Malmros
В ролях: Лоне Роуд, Лотте Херманн, Шарлотта Уинтер Нилсен, Гауте Манч
Описание: Частично автобиографический фильм Нильса Мальмроса состоит как бы из трёх частей. В первой главному герою Оле всего 6 лет и он со старшим братом впервые открывает для себя понятие секса. Вторая часть посвящена успехам на этом поприще уже в колледже, где у Оле появляется подружка Марианна. Наконец, в третьей части речь идёт о похождениях Оле в компании медсестры, практикующей не только общение с шприцами и клизмами…

Качество видео: DVDRip
Формат видео: AVI
Видео: XviD build 50, 720x448 (1.61:1), 25 fps, ~1654 kbps avg
Аудио: AC3 Dolby Digital, 48 kHz, ~192.00 kbps avg, 2/0 (L,R) ch (VO)
Аудио 2: AC3 Dolby Digital, 48 kHz, ~192.00 kbps avg, 2/0 (L,R) ch (Orig.)
Формат субтитров: softsub (SRT)

MediaInfo

General
Complete name : C:\Torrents\Drenge_1977\Drenge_1977_DVDRip.avi
Format : AVI
Format/Info : Audio Video Interleave
File size : 1.16 GiB
Duration : 1h 21mn
Overall bit rate : 2 054 Kbps
Writing application : VirtualDubMod 1.5.10.2 (build 2540/release)
Writing library : VirtualDubMod build 2540/release
Video
ID : 0
Format : MPEG-4 Visual
Format profile : Advanced Simple@L5
Format settings, BVOP : 2
Format settings, QPel : No
Format settings, GMC : No warppoints
Format settings, Matrix : Default (MPEG)
Codec ID : DX50
Codec ID/Hint : DivX 5
Duration : 1h 21mn
Bit rate : 1 656 Kbps
Width : 720 pixels
Height : 448 pixels
Display aspect ratio : 1.607
Frame rate : 25.000 fps
Color space : YUV
Chroma subsampling : 4:2:0
Bit depth : 8 bits
Scan type : Progressive
Compression mode : Lossy
Bits/(Pixel*Frame) : 0.205
Stream size : 961 MiB (81%)
Writing library : XviD 1.2.1 (UTC 2008-12-04)
Audio #1
ID : 1
Format : AC-3
Format/Info : Audio Coding 3
Mode extension : CM (complete main)
Format settings, Endianness : Big
Codec ID : 2000
Duration : 1h 21mn
Bit rate mode : Constant
Bit rate : 192 Kbps
Channel(s) : 2 channels
Channel positions : Front: L R
Sampling rate : 48.0 KHz
Bit depth : 16 bits
Compression mode : Lossy
Stream size : 111 MiB (9%)
Alignment : Split accross interleaves
Interleave, duration : 40 ms (1.00 video frame)
Interleave, preload duration : 500 ms
Audio #2
ID : 2
Format : AC-3
Format/Info : Audio Coding 3
Mode extension : CM (complete main)
Format settings, Endianness : Big
Codec ID : 2000
Duration : 1h 21mn
Bit rate mode : Constant
Bit rate : 192 Kbps
Channel(s) : 2 channels
Channel positions : Front: L R
Sampling rate : 48.0 KHz
Bit depth : 16 bits
Compression mode : Lossy
Stream size : 111 MiB (9%)
Alignment : Split accross interleaves
Interleave, duration : 40 ms (1.00 video frame)
Interleave, preload duration : 500 ms

Скриншот c названием фильма

Скриншоты

-
Показать сообщения:    

Текущее время: Сегодня 20:39

Часовой пояс: GMT



Вы не можете начинать темы
Вы не можете отвечать на сообщения
Вы не можете редактировать свои сообщения
Вы не можете удалять свои сообщения
Вы не можете голосовать в опросах
Вы не можете прикреплять файлы к сообщениям
Вы не можете скачивать файлы