Ивановский Торрент трекер
Яндекс.Погода
 

[Цитировать]
HUNTER

Малыш / The Kid
Страна: США
Жанр: комедия
Год выпуска: 1921
Продолжительность: 00:53:29
Перевод: Субтитры
Cубтитры: русские
Оригинальная аудиодорожка: музыкальное сопровождение-Режиссер: Чарльз Чаплин / Charles Chaplin
В ролях: Чарльз Чаплин, Джеки Куган, Эдна Первиенс, Карл Миллер, Гранивиль Дэнни Редмонд
Описание: История малыша, оставленного нищей матерью в лимузине, в надежде обеспечить сыну лучшую жизнь. Но лимузин угоняют грабители, а ребенка выбрасывают на улицу, где его и обнаруживает Маленький Бродяга. После безуспешных попыток найти мальчику новых родителей, Бродяге приходится оставить его у себя.
IMDb || КиноПоиск-Тип релиза: BDRip 720p [GrupoHDS]
Контейнер: MKV
Видео: x264/AVC, 960x720 at 23.976 fps, 9500 kbps
Аудио#1: Music: 48 kHz, AC3, 1.0 ch, 640 kbps
Аудио#2: English: 48 kHz, AC3, 1.0 ch, 192 kbps |commentary by Chaplin historian Charles Maland
Формат субтитров: softsub (SRT)
Сэмпл

MediaInfo

General
Unique ID : 225564689716531147326697777937360952151 (0xA9B22DD50D05DB5A81E7E0885AB91B57)
Complete name : The Kid.1921.Criterion.720p.x264-GrupoHDS. rutracker.mkv
Format : Matroska
Format version : Version 2
File size : 3.86 GiB
Duration : 53mn 29s
Overall bit rate : 10.3 Mbps
Movie name : Release for RuTracker
Writing application : mkvmerge v5.0.1 ('Es ist Sommer') built on Nov 6 2011 16:23:40
Writing library : libebml v1.2.2 + libmatroska v1.3.0
Video
ID : 1
Format : AVC
Format/Info : Advanced Video Codec
Format profile : High@L4.1
Format settings, CABAC : Yes
Format settings, ReFrames : 12 frames
Codec ID : V_MPEG4/ISO/AVC
Duration : 53mn 29s
Bit rate : 9 500 Kbps
Width : 960 pixels
Height : 720 pixels
Display aspect ratio : 4:3
Frame rate mode : Constant
Frame rate : 23.976 fps
Color space : YUV
Chroma subsampling : 4:2:0
Bit depth : 8 bits
Scan type : Progressive
Bits/(Pixel*Frame) : 0.573
Stream size : 3.47 GiB (90%)
Title : The Kid.1921.Criterion.720p.x264-GrupoHDS. rutracker
Writing library : x264 core 148 r2665 a01e339
Encoding settings : cabac=1 / ref=12 / deblock=1:-3:-3 / analyse=0x3:0x133 / me=umh / subme=11 / psy=1 / psy_rd=1.10:0.00 / mixed_ref=1 / me_range=32 / chroma_me=1 / trellis=2 / 8x8dct=1 / cqm=0 / deadzone=21,11 / fast_pskip=0 / chroma_qp_offset=-2 / threads=18 / lookahead_threads=4 / sliced_threads=0 / nr=0 / decimate=0 / interlaced=0 / bluray_compat=0 / constrained_intra=0 / bframes=12 / b_pyramid=2 / b_adapt=2 / b_bias=0 / direct=3 / weightb=1 / open_gop=0 / weightp=2 / keyint=240 / keyint_min=23 / scenecut=40 / intra_refresh=0 / rc_lookahead=60 / rc=2pass / mbtree=0 / bitrate=9500 / ratetol=1.0 / qcomp=0.70 / qpmin=0 / qpmax=51 / qpstep=4 / cplxblur=20.0 / qblur=0.5 / vbv_maxrate=40000 / vbv_bufsize=40000 / nal_hrd=none / filler=0 / ip_ratio=1.30 / pb_ratio=1.20 / aq=3:0.60
Language : English
Default : Yes
Forced : No
Audio #1
ID : 2
Format : AC-3
Format/Info : Audio Coding 3
Mode extension : CM (complete main)
Format settings, Endianness : Big
Codec ID : A_AC3
Duration : 53mn 29s
Bit rate mode : Constant
Bit rate : 640 Kbps
Channel(s) : 1 channel
Channel positions : Front: C
Sampling rate : 48.0 KHz
Bit depth : 16 bits
Compression mode : Lossy
Stream size : 245 MiB (6%)
Title : музыкальное сопровождение
Default : Yes
Forced : No
Audio #2
ID : 3
Format : AC-3
Format/Info : Audio Coding 3
Mode extension : CM (complete main)
Format settings, Endianness : Big
Codec ID : A_AC3
Duration : 53mn 29s
Bit rate mode : Constant
Bit rate : 192 Kbps
Channel(s) : 1 channel
Channel positions : Front: C
Sampling rate : 48.0 KHz
Bit depth : 16 bits
Compression mode : Lossy
Stream size : 73.5 MiB (2%)
Title : commentary by Chaplin historian Charles Maland
Language : English
Default : No
Forced : No
Text
ID : 4
Format : UTF-8
Codec ID : S_TEXT/UTF8
Codec ID/Info : UTF-8 Plain Text
Language : Russian
Default : Yes
Forced : No
Menu
00:00:00.000 : en:00:00:00.000
00:06:02.028 : en:00:06:02.028
00:10:31.214 : en:00:10:31.214
00:13:21.426 : en:00:13:21.426
00:16:05.882 : en:00:16:05.882
00:20:40.698 : en:00:20:40.698
00:24:08.906 : en:00:24:08.906
00:26:40.766 : en:00:26:40.766
00:32:21.314 : en:00:32:21.314
00:35:39.721 : en:00:35:39.721
00:41:00.375 : en:00:41:00.375
00:46:12.853 : en:00:46:12.853
00:47:18.252 : en:00:47:18.252
00:52:33.734 : en:00:52:33.734

Скриншоты

MK2 vs Criterion
Показать сообщения:    

Текущее время: 22-Сен 19:45

Часовой пояс: UTC - 1


Вы не можете начинать темы
Вы не можете отвечать на сообщения
Вы не можете редактировать свои сообщения
Вы не можете удалять свои сообщения
Вы не можете голосовать в опросах
Вы не можете прикреплять файлы к сообщениям
Вы не можете скачивать файлы

!ВНИМАНИЕ!
Сайт не предоставляет электронные версии произведений, а занимается лишь коллекционированием и каталогизацией ссылок, присылаемых и публикуемых на форуме нашими читателями. Если вы являетесь правообладателем какого-либо представленного материала и не желаете, чтобы ссылка на него находилась в нашем каталоге, свяжитесь с нами, и мы незамедлительно удалим ее. Файлы для обмена на трекере предоставлены пользователями сайта, и администрация не несет ответственности за их содержание. Просьба не заливать файлы, защищенные авторскими правами, а также файлы нелегального содержания!