Ивановский Торрент трекер
Яндекс.Погода
 

[Цитировать]
HUNTER

-Малыш / Little Boy- Год выпуска: 2015
Страна: Мексика, США
Жанр: драма, комедия, военный
Продолжительность: 01:46:53
Перевод: профессиональный многоголосый закадровый (FocusStudio)
Cубтитры: русские, английские-Режиссеры: Алехандро Гомес Монтеверде / Alejandro Gomez Monteverde
В ролях: Джейкоб Сальвати, Эмили Уотсон, Кэри-Хироюки Тагава, Майкл Рапапорт, Дэвид Генри, Бен Чаплин, Эдуардо Верастеги, Тед Левайн, Эли Ландри, Абрахам Бенруби-Описание: Простой американский ребенок пытается сделать невозможное - он хочет, чтобы его отец вернулся со Второй мировой войны.-Релиз:
Роли озвучивали: Станислав Стрелков, Василий Зотов, Алёна Созинова, Александр Воронов
Звукорежиссёр: Руслан Золотов
Перевод: Анастасия Кисиленко- -Качество: BDRip 720p
Формат: MKV
Видео: 1280x532 (2.40:1), 23,976 fps, MPEG-4 AVC ~6952 kbps avg, 0.426 bit/pixel
Аудио Rus: AC3, 6 ch, 48 kHz, 640 kbps
Аудио Eng: AC3, 6 ch, 48 kHz, 640 kbps-

Скриншоты

MediaInfo

Format : Matroska
Format version : Version 4 / Version 2
File size : 6.27 GiB
Duration : 1h 46mn
Overall bit rate : 8 399 Kbps
Movie name : Little Boy @ FocusStudio
Encoded date : UTC 2016-03-04 20:16:36
Writing application : mkvmerge v8.3.0 ('Over the Horizon') 64bit
Writing library : libebml v1.3.1 + libmatroska v1.4.2
Video
ID : 1
Format : AVC
Format/Info : Advanced Video Codec
Format profile : High@L4.1
Format settings, CABAC : Yes
Format settings, ReFrames : 12 frames
Codec ID : V_MPEG4/ISO/AVC
Duration : 1h 46mn
Bit rate : 6 952 Kbps
Width : 1 280 pixels
Height : 532 pixels
Display aspect ratio : 2.40:1
Frame rate mode : Constant
Frame rate : 23.976 fps
Color space : YUV
Chroma subsampling : 4:2:0
Bit depth : 8 bits
Scan type : Progressive
Bits/(Pixel*Frame) : 0.426
Stream size : 5.19 GiB (83%)
Writing library : x264 core 146 r2538kMod 121396c
Encoding settings : cabac=1 / ref=12 / deblock=1:-3:-3 / analyse=0x3:0x133 / me=umh / subme=10 / psy=1 / fade_compensate=0.00 / psy_rd=1.05:0.00 / mixed_ref=1 / me_range=24 / chroma_me=1 / trellis=2 / 8x8dct=1 / cqm=0 / deadzone=21,11 / fast_pskip=0 / chroma_qp_offset=-2 / threads=12 / lookahead_threads=2 / sliced_threads=0 / nr=0 / decimate=0 / interlaced=0 / bluray_compat=0 / constrained_intra=0 / fgo=0 / bframes=7 / b_pyramid=2 / b_adapt=2 / b_bias=0 / direct=3 / weightb=1 / open_gop=0 / weightp=2 / keyint=250 / keyint_min=23 / scenecut=40 / intra_refresh=0 / rc_lookahead=60 / rc=crf / mbtree=0 / crf=17.5000 / qcomp=0.66 / qpmin=0 / qpmax=69 / qpstep=4 / vbv_maxrate=62500 / vbv_bufsize=78125 / crf_max=0.0 / nal_hrd=none / filler=0 / ip_ratio=1.30 / pb_ratio=1.20 / aq=3:0.75
Language : English
Default : Yes
Forced : No
Color range : Limited
Matrix coefficients : BT.709
Audio #1
ID : 2
Format : AC-3
Format/Info : Audio Coding 3
Mode extension : CM (complete main)
Format settings, Endianness : Big
Codec ID : A_AC3
Duration : 1h 46mn
Bit rate mode : Constant
Bit rate : 640 Kbps
Channel(s) : 6 channels
Channel positions : Front: L C R, Side: L R, LFE
Sampling rate : 48.0 KHz
Compression mode : Lossy
Stream size : 489 MiB (8%)
Title : MVO FocusStudio
Language : Russian
Default : Yes
Forced : No
Audio #2
ID : 3
Format : AC-3
Format/Info : Audio Coding 3
Mode extension : CM (complete main)
Format settings, Endianness : Big
Codec ID : A_AC3
Duration : 1h 46mn
Bit rate mode : Constant
Bit rate : 640 Kbps
Channel(s) : 6 channels
Channel positions : Front: L C R, Side: L R, LFE
Sampling rate : 48.0 KHz
Compression mode : Lossy
Stream size : 489 MiB (8%)
Language : English
Default : No
Forced : No
Text #1
ID : 4
Format : UTF-8
Codec ID : S_TEXT/UTF8
Codec ID/Info : UTF-8 Plain Text
Language : Russian
Default : No
Forced : No
Text #2
ID : 5
Format : UTF-8
Codec ID : S_TEXT/UTF8
Codec ID/Info : UTF-8 Plain Text
Language : English
Default : No
Forced : No
Menu
00:00:00.000 : en:00:00:00.000
00:04:17.215 : en:00:04:17.215
00:09:29.861 : en:00:09:29.861
00:16:54.764 : en:00:16:54.764
00:21:36.962 : en:00:21:36.962
00:27:01.745 : en:00:27:01.745
00:33:18.914 : en:00:33:18.914
00:38:45.365 : en:00:38:45.365
00:42:30.006 : en:00:42:30.006
00:47:38.230 : en:00:47:38.230
00:50:35.616 : en:00:50:35.616
00:55:34.998 : en:00:55:34.998
01:02:40.006 : en:01:02:40.006
01:07:49.023 : en:01:07:49.023
01:12:28.261 : en:01:12:28.261
01:19:20.756 : en:01:19:20.756
01:24:06.166 : en:01:24:06.166
01:28:39.439 : en:01:28:39.439
01:32:51.941 : en:01:32:51.941
01:37:46.986 : en:01:37:46.986
Показать сообщения:    

Текущее время: 21-Сен 02:30

Часовой пояс: UTC - 1


Вы не можете начинать темы
Вы не можете отвечать на сообщения
Вы не можете редактировать свои сообщения
Вы не можете удалять свои сообщения
Вы не можете голосовать в опросах
Вы не можете прикреплять файлы к сообщениям
Вы не можете скачивать файлы

!ВНИМАНИЕ!
Сайт не предоставляет электронные версии произведений, а занимается лишь коллекционированием и каталогизацией ссылок, присылаемых и публикуемых на форуме нашими читателями. Если вы являетесь правообладателем какого-либо представленного материала и не желаете, чтобы ссылка на него находилась в нашем каталоге, свяжитесь с нами, и мы незамедлительно удалим ее. Файлы для обмена на трекере предоставлены пользователями сайта, и администрация не несет ответственности за их содержание. Просьба не заливать файлы, защищенные авторскими правами, а также файлы нелегального содержания!