Важное объявление!
У Нас Все раздачи мультитрекерные, при нуле пиров в релизах, можете смело вставать на закачку!
 
Автор Сообщение

HUNTER

Стаж:
4 года 10 месяцев
Сообщений:
65561

Репутация: 101

[+] [-]
Вне форума [Профиль] [ЛС]

Маленький помощник Сатаны / Помощник Сатаны / Satan’s Little Helper
Страна: США
Жанр: ужасы, комедия.
Год выпуска: 2004
Продолжительность: 01:36:08
Перевод: Профессиональный (двухголосый закадровый) НТВ
Перевод 2: Профессиональный (многоголосый закадровый)
Перевод 3: Профессиональный (двухголосый закадровый)
Cубтитры: итальянские
Оригинальная аудиодорожка: английский
Режиссер: Джефф Либерман / Jeff Lieberman
В ролях: Александр Брикель , Кэтрин Уинник, Аманда Пламмер, Уасс М. Стивенс, Дэн Зиски, Мелиса МакГрегор, Joshua Annex, Джойс Р. Кобрин, Энтони Ардолино, Мэри Кэй Адамс
Описание: Близится Хэллоуин, и люди постепенно начинают обряжаться в страшные маски и костюмы. Маленький мальчик по имени Даглас уже успел надеть на себя ярко-красный костюм помощника Сатаны. Почему его – он обожает играть в компьютерную игрушку под названием “Маленький помощник Сатаны”. Для него это, конечно, по приколу, так он – доброй души человек. Но наступающий праздник диктует свои условия, и выйдя как-то на улицу, он становится свидетелем того, как какой-то субъект в чёрном хэллоуинском костюме, изображающем Сатану, крутится возле одного из домов, а рядом с ним расположены несколько не шевелящихся людей. Как мы можем заметить, они – покойнички, о чём свидетельствуют кровавые раны на их телах. Даглас же подумал, что это просто прикол такой, и решил навязаться к этому мужику в спутники, став его помощником. “Сатана” оказался неразговорчивым и общался с мальчиком посредством знаков. Парнишка рассказал ему о своей семье и предложил пойти к нему домой, что убить хахаля его сестры (в шутку, конечно). На что “Сатана” с радостью согласился. С этого момента жизнь семейства Вули превратится в кошмар, так как под личиной добропорядочного адского существа окажется серийный убийца. Когда, как не в Хэллоуин, у него есть возможность продемонстрировать весь свой богатый арсенал кровавых фантазий?
Чернушный ужастик от создателя “слэшера” Перед самым рассветом и “животного” фильма Извивание. Это творение – одно из самых приятных откровений 2004 года. Оно полностью лишено компьютерности, обладает изрядной порцией чёрного и просто молодёжного юмора, присутствует ряд сексуальных ситуаций, и самое главное – здесь есть потрошительные сцены, которые ни в коем случае нельзя принимать всерьёз, так как они сделаны в довольно стёбном духе. Одну из них я даже отмечу: убийца на глазах у семейства Вули убивает мужика, разрезая ему брюхо, затем он вытаскивает у ещё живого человека кишки и наматывает их на что-то. Причём, это происходит настолько неожиданно, что вместе с героями оторопеваем и мы. Отмечу чрезвычайно удачную маску “Сатаны” (я бы тоже такую хотел). Чего (или кого) ещё нельзя не отметить, так это актрису Кэтрин Уинник, а точнее – её сиськи, которые хоть и не покажут в полной мере, зато они будут сдавлены и отчасти выпячены плотным корсетом на манер всяких немецких фройлян старых веков.
Доп. информация: Русские звуковые дорожки взяты с этой раздачи http://rutracker.org/forum/viewtopic.php?t=2669094 автору большое спасибо.
За оригинальный диск большое спасибо Gadgetwrench.
За синхронизацию огромное спасибо Нордер.
При пересборе двд были использованы программы:
PgcDemux - разделение компонентов диска на файлы
Muxman - мультиплексирование и авторинг DVD
VobBlanker - реавторинг DVD

Скрин завершения проекта

Бонусы: Трейлер, галерея.
Сэмпл: http://sendfile.su/1093980
Тип релиза: DVD9 (Custom)
Контейнер: DVD-Video
Видео: PAL 16:9 (720x576) VBR Auto Pan&Scan
Аудио: Russian (Dolby AC3, 192 Кбит/сек, 2 ch)
Аудио 2: Russian (Dolby AC3, 192 Кбит/сек, 2 ch)
Аудио 3: Russian (Dolby AC3, 192 Кбит/сек, 2 ch)
Аудио 4: Italiano (Dolby AC3, 448 Кбит/сек, 6 ch)
Аудио 5: Italiano (Dolby AC3, 192 Кбит/сек? 2 ch)
Аудио 6: English (Dolby AC3, 192 Кбит/сек? 2 ch)
Аудио 7: Italiano (DTS, 768 Кбит/сек. 6 ch)
Формат субтитров: softsub (SRT)

DVDInfo

Size: 6.90 Gb ( 7 239 098 KBytes ) - DVD-9
Enabled regions: 1, 2, 3, 4, 5, 6, 7, 8
VTS_01 :
Play Length: 01:36:08
Video: PAL 16:9 (720x576) VBR, Auto Pan&Scan
Audio:
Russian (Dolby AC3, 2 ch)
Russian (Dolby AC3, 2 ch)
Russian (Dolby AC3, 2 ch)
Italiano (Dolby AC3, 6 ch)
Italiano (Dolby AC3, 2 ch)
English (Dolby AC3, 2 ch)
Italiano (DTS, 6 ch)
Subtitles:
Italiano
VTS_02 :
Play Length: 00:01:36+00:00:19
Video: PAL 4:3 (720x576) VBR
Audio:
Not specified (Dolby AC3, 2 ch)
Menu Video:
PAL 4:3 (720x576) VBR
Menu Audio:
Not specified (Dolby AC3, 6 ch)
Menu Subtitles:
Not specified
Menu Italiano Language Unit :
Root Menu

MediaInfo

Общее
Полное имя : M:\Satan's Little Helper_2004\VIDEO_TS\VTS_01_1.VOB
Формат : MPEG-PS
Размер файла : 1024 Мбайт
Продолжительность : 14 м.
Общий поток : 9851 Кбит/сек
Видео
Идентификатор : 224 (0xE0)
Формат : MPEG Video
Версия формата : Version 2
Профиль формата : Main@Main
Параметр BVOP формата : Да
Параметр матрицы формата : Выборочная
Параметр GOP формата : M=2, N=12
Продолжительность : 14 м.
Битрейт : 7500 Кбит/сек
Ширина : 720 пикселей
Высота : 576 пикселей
Соотношение сторон : 16:9
Частота кадров : 25,000 кадров/сек
Стандарт вещания : PAL
Цветовое пространство : YUV
Субдискретизация насыщенности : 4:2:0
Битовая глубина : 8 бит
Тип развёртки : Чересстрочная
Порядок развёртки : Нижнее поле первое
Метод сжатия : С потерями
Бит/(Пиксели*Кадры) : 0.723
Размер потока : 779 Мбайт (76%)
Аудио #1
Идентификатор : 189 (0xBD)-128 (0x80)
Формат : AC-3
Формат/Информация : Audio Coding 3
Расширение режима : CM (complete main)
Параметр Endianness формата : Big
Режим смешивания : DVD-Video
Продолжительность : 14 м.
Вид битрейта : Постоянный
Битрейт : 192 Кбит/сек
Каналы : 2 канала
Расположение каналов : Front: L R
Частота : 48,0 КГц
Битовая глубина : 16 бит
Метод сжатия : С потерями
Размер потока : 20,0 Мбайт (2%)
Аудио #2
Идентификатор : 189 (0xBD)-129 (0x81)
Формат : AC-3
Формат/Информация : Audio Coding 3
Расширение режима : CM (complete main)
Параметр Endianness формата : Big
Режим смешивания : DVD-Video
Продолжительность : 14 м.
Вид битрейта : Постоянный
Битрейт : 192 Кбит/сек
Каналы : 2 канала
Расположение каналов : Front: L R
Частота : 48,0 КГц
Битовая глубина : 16 бит
Метод сжатия : С потерями
Размер потока : 20,0 Мбайт (2%)
Аудио #3
Идентификатор : 189 (0xBD)-130 (0x82)
Формат : AC-3
Формат/Информация : Audio Coding 3
Расширение режима : CM (complete main)
Параметр Endianness формата : Big
Режим смешивания : DVD-Video
Продолжительность : 14 м.
Вид битрейта : Постоянный
Битрейт : 192 Кбит/сек
Каналы : 2 канала
Расположение каналов : Front: L R
Частота : 48,0 КГц
Битовая глубина : 16 бит
Метод сжатия : С потерями
Размер потока : 20,0 Мбайт (2%)
Аудио #4
Идентификатор : 189 (0xBD)-131 (0x83)
Формат : AC-3
Формат/Информация : Audio Coding 3
Расширение режима : CM (complete main)
Параметр Endianness формата : Big
Режим смешивания : DVD-Video
Продолжительность : 14 м.
Вид битрейта : Постоянный
Битрейт : 448 Кбит/сек
Каналы : 6 каналов
Расположение каналов : Front: L C R, Side: L R, LFE
Частота : 48,0 КГц
Битовая глубина : 16 бит
Метод сжатия : С потерями
Размер потока : 46,6 Мбайт (5%)
Аудио #5
Идентификатор : 189 (0xBD)-132 (0x84)
Формат : AC-3
Формат/Информация : Audio Coding 3
Профиль формата : Dolby Digital
Расширение режима : CM (complete main)
Параметр Endianness формата : Big
Режим смешивания : DVD-Video
Продолжительность : 14 м.
Вид битрейта : Постоянный
Битрейт : 192 Кбит/сек
Каналы : 2 канала
Расположение каналов : Front: L R
Частота : 48,0 КГц
Битовая глубина : 16 бит
Метод сжатия : С потерями
Размер потока : 20,0 Мбайт (2%)
Аудио #6
Идентификатор : 189 (0xBD)-133 (0x85)
Формат : AC-3
Формат/Информация : Audio Coding 3
Профиль формата : Dolby Digital
Расширение режима : CM (complete main)
Параметр Endianness формата : Big
Режим смешивания : DVD-Video
Продолжительность : 14 м.
Вид битрейта : Постоянный
Битрейт : 192 Кбит/сек
Каналы : 2 канала
Расположение каналов : Front: L R
Частота : 48,0 КГц
Битовая глубина : 16 бит
Метод сжатия : С потерями
Размер потока : 20,0 Мбайт (2%)
Аудио #7
Идентификатор : 189 (0xBD)-142 (0x8E)
Формат : DTS
Формат/Информация : Digital Theater Systems
Режим смешивания : DVD-Video
Продолжительность : 14 м.
Вид битрейта : Постоянный
Битрейт : 755 Кбит/сек
Каналы : 6 каналов
Расположение каналов : Front: L C R, Side: L R, LFE
Частота : 48,0 КГц
Битовая глубина : 24 бит
Метод сжатия : С потерями
Размер потока : 78,4 Мбайт (8%)
Меню

Постеры и обложки

Size: 6.90 Gb ( 7 239 098 KBytes ) - DVD-9
Enabled regions: 1, 2, 3, 4, 5, 6, 7, 8
VTS_01 :
Play Length: 01:36:08
Video: PAL 16:9 (720x576) VBR, Auto Pan&Scan
Audio:
Russian (Dolby AC3, 2 ch)
Russian (Dolby AC3, 2 ch)
Russian (Dolby AC3, 2 ch)
Italiano (Dolby AC3, 6 ch)
Italiano (Dolby AC3, 2 ch)
English (Dolby AC3, 2 ch)
Italiano (DTS, 6 ch)
Subtitles:
Italiano
VTS_02 :
Play Length: 00:01:36+00:00:19
Video: PAL 4:3 (720x576) VBR
Audio:
Not specified (Dolby AC3, 2 ch)
Menu Video:
PAL 4:3 (720x576) VBR
Menu Audio:
Not specified (Dolby AC3, 6 ch)
Menu Subtitles:
Not specified
Menu Italiano Language Unit :
Root Menu

Скриншоты меню


_________________
Показать сообщения:    

Текущее время: Сегодня 11:48

Часовой пояс: GMT



Вы не можете начинать темы
Вы не можете отвечать на сообщения
Вы не можете редактировать свои сообщения
Вы не можете удалять свои сообщения
Вы не можете голосовать в опросах
Вы не можете прикреплять файлы к сообщениям
Вы не можете скачивать файлы