Маленький Немо: Приключения в стране снов / Little Nemo: Adventures in Slumberland (Масами Хата / Masami Hata, Уильям Т. Хёрц / William T. Hurtz) [1989, фэнтези, приключения, семейный, BDRip 1080p] AVO (Василий Горчаков) :: Ивановский Торрент трекер
Важное объявление!
У Нас Все раздачи мультитрекерные, при нуле пиров в релизах, можете смело вставать на закачку!
Статистика раздачи
Размер:     |    Зарегистрирован:     |    Скачан:     |   
Нет
 
     
 
 
Автор Сообщение

HUNTER

Стаж:
4 года 11 месяцев
Сообщений:
66077

Репутация: 101

[+] [-]
Вне форума [Профиль] [ЛС]

Маленький Немо: Приключения в стране снов
Little Nemo: Adventures in Slumberland
-
Страна: Япония, США
Жанр: фэнтези, приключения, семейный
Продолжительность: 01:34:54
Год выпуска: 1989
Перевод: Авторский (одноголосый закадровый) Василий Горчаков
Русские субтитры: нет-Режиссёр: Масами Хата / Masami Hata, Уильям Т. Хёрц / William T. Hurtz
Роли озвучивали: Гэбриел Дэймон / Gabriel Damon, Микки Руни / Mickey Rooney, Рене Обержонуа / Rene Auberjonois, Дэнни Манн / Danny Mann, Лаура Муни / Laura Mooney-Описание:
Маленький мальчик по имени Немо видит страшный сон, о том, как за ним по земле и по воде мчится огромный поезд. На утро папа зовет его смотреть цирк, который приехал в город. Среди участников циркового представления Немо видит тех, с кем ему суждено дальше встретиться. На следующую ночь он просыпается от странного света. За Немо прилетел дирижабль, и ему предлагают отправится в Страну Снов по приглашению Принцессы, которая, кстати, прислала в подарок печенье. Немо радостно отправляется в путь. По пути дирижабль попадает в шторм в море Кошмаров, которое отделяет мир Немо от Страны Снов.-Дополнительная информация:
За оцифровку звуковой дорожки с переводом Горчакова ОГРОМНОЕ СПАСИБО nabby_3.
Ввиду того что VHS версия фильма отличается меньшей продолжительностью и монтажом от позже вышедшей версии на DVD и Blu-Ray, к переводу Горчакова оцифрованному с кассеты, на расширенные места вставил перевод Дольского из DVD версии.-Качество: BDRip 1080p
Видео: 1920x1048 (1.85:1), 23.976 fps, AVC, ~6142 Kbps, 0.127 bits/pixel
Аудио 1: Russian, 48.0 KHz, AC3, 2 ch, 192 Kbps - Василий Горчаков
Аудио 2: English, 48.0 KHz, AC3, 6 ch, 448 Kbps
Субтитры: отсутствуют

Подробные технические данные

Complete name : Little.Nemo.Adventures.In.Slumberland.1989.1080p.BluRay.x264-HD4U [PublicHD]\Little.nemo.1989.1080p.BDRip.Gorchakov.mkvFormat : MatroskaFormat version : Version 4 / Version 2File size : 4.49 GiBDuration : 1h 34mnOverall bit rate : 6 779 KbpsEncoded date : UTC 2014-08-06 20:47:08Writing application : mkvmerge v6.8.0 ('Theme for Great Cities') 32bit built on Mar 2 2014 21:27:07Writing library : libebml v1.3.0 + libmatroska v1.4.1
VideoID : 1Format : AVCFormat/Info : Advanced Video CodecFormat profile : High@L4.0Format settings, CABAC : YesFormat settings, ReFrames : 4 framesCodec ID : V_MPEG4/ISO/AVCDuration : 1h 34mnBit rate : 6 142 KbpsWidth : 1 920 pixelsHeight : 1 048 pixelsDisplay aspect ratio : 1.85:1Frame rate mode : ConstantFrame rate : 23.976 fpsColor space : YUVChroma subsampling : 4:2:0Bit depth : 8 bitsScan type : ProgressiveBits/(Pixel*Frame) : 0.127Stream size : 3.98 GiB (89%)Writing library : x264 core 128 r2216 198a7eaEncoding settings : cabac=1 / ref=4 / deblock=1:0:0 / analyse=0x3:0x133 / me=umh / subme=7 / psy=1 / psy_rd=1.00:0.00 / mixed_ref=1 / me_range=16 / chroma_me=1 / trellis=1 /8x8dct=1 / cqm=0 /deadzone=21,11 / fast_pskip=0 / chroma_qp_offset=-2 / threads=12 / lookahead_threads=2 / sliced_threads=0 / nr=0 / decimate=1 / interlaced=0 / bluray_compat=0 / constrained_intra=0 / bframes=3 / b_pyramid=2 / b_adapt=2 / b_bias=0 / direct=3 / weightb=1 / open_gop=0 / weightp=2 / keyint=250 / keyint_min=23 / scenecut=40 / intra_refresh=0 /rc_lookahead=50 / rc=2pass / mbtree=1 / bitrate=6142 / ratetol=1.0 / qcomp=0.60 /qpmin=0 / qpmax=69 / qpstep=4 / cplxblur=20.0 / qblur=0.5 / ip_ratio=1.40 / aq=1:1.00Language : EnglishDefault : YesForced : No
Audio #1ID : 2Format : AC-3Format/Info : Audio Coding 3Mode extension : CM (complete main)Format settings, Endianness : BigCodec ID : A_AC3Duration : 1h 34mnBit rate mode : ConstantBit rate : 192 KbpsChannel(s) : 2 channelsChannel positions : Front: L RSampling rate : 48.0 KHzBit depth : 16 bitsCompression mode : LossyStream size : 130 MiB (3%)Default : YesForced : No
Audio #2ID : 3Format : AC-3Format/Info : Audio Coding 3Mode extension : CM (complete main)Format settings, Endianness : BigCodec ID : A_AC3Duration : 1h 34mnBit rate mode : ConstantBit rate : 448 KbpsChannel(s) : 6 channelsChannel positions : Front: L C R, Side: L R, LFESampling rate : 48.0 KHzBit depth : 16 bitsCompression mode : LossyStream size : 304 MiB (7%)Default : NoForced : No

Скриншоты


_________________
Показать сообщения:    

Текущее время: Сегодня 09:09

Часовой пояс: GMT



Вы не можете начинать темы
Вы не можете отвечать на сообщения
Вы не можете редактировать свои сообщения
Вы не можете удалять свои сообщения
Вы не можете голосовать в опросах
Вы не можете прикреплять файлы к сообщениям
Вы не можете скачивать файлы