Важное объявление!
У Нас Все раздачи мультитрекерные, при нуле пиров в релизах, можете смело вставать на закачку!
 
Автор Сообщение

HUNTER

Стаж:
4 года 7 месяцев
Сообщений:
61521

Репутация: 101

[+] [-]
Вне форума [Профиль] [ЛС]

Маленький Немо: Приключения в стране снов / Little Nemo: Adventures in Slumberland
Страна: Япония, США
Жанр: фэнтези, приключения, семейный
Продолжительность: 01:34:56
Год выпуска: 1989
Перевод: Авторский (одноголосый закадровый) Андрей Дольский
Русские субтитры: нет
Режиссёр: Масами Хата / Masami Hata, Уильям Т. Хёрц / William T. Hurtz
Описание: Маленький мальчик по имени Немо видит страшный сон, о том, как за ним по земле и по воде мчится огромный поезд. На утро папа зовет его смотреть цирк, который приехал в город. Среди участников циркового представления Немо видит тех, с кем ему суждено дальше встретиться. На следующую ночь он просыпается от странного света. За Немо прилетел дирижабль, и ему предлагают отправится в Страну Снов по приглашению Принцессы, которая, кстати, прислала в подарок печенье. Немо радостно отправляется в путь. По пути дирижабль попадает в шторм в море Кошмаров, которое отделяет мир Немо от Страны Снов.
Семпл: http://sendfile.su/963088
Качество: BDRip 720p by Sensetivity-raws
Формат: MKV
Видео: 1280x696 (1.85:1), 23.976 fps, AVC, ~13.2 Mbps, 0.618 bits/pixel
Аудио 1: Russian, 48.0 KHz, AC3, 2 ch, 192 Kbps - Андрей Дольский
Аудио 2: English, 48.0 KHz, AC3, 6 ch, 448 Kbps
Аудио 3: Japanese, 48.0 KHz, FLAC, 2 ch, 960 Kbps
Субтитры: английские

Подробные технические данные

GeneralUnique ID : 179513779181142666937745994651636610448 (0x870D18A582FE89BAAECD106DD6683590)Complete name : D:\Little Nemo.mkvFormat : MatroskaFormat version : Version 4 / Version 2File size : 9.79 GiBDuration : 1h 34mnOverall bit rate mode : VariableOverall bit rate : 14.8 MbpsMovie name : Little Nemo / Little Nemo: Adventures in Slumberland / リトル ニモ (1989)Encoded date : UTC 2014-04-03 03:00:03Writing application : mkvmerge v6.8.0 ('Theme for Great Cities') 64bit built on Mar 2 2014 21:34:26Writing library : libebml v1.3.0 + libmatroska v1.4.1
VideoID : 1Format : AVCFormat/Info : Advanced Video CodecFormat profile : High@L4.1Format settings, CABAC : YesFormat settings, ReFrames : 6 framesCodec ID : V_MPEG4/ISO/AVCDuration : 1h 34mnWidth : 1 280 pixelsHeight : 696 pixelsDisplay aspect ratio : 1.85:1Frame rate mode : ConstantFrame rate : 23.976 fpsColor space : YUVChroma subsampling : 4:2:0Bit depth : 8 bitsScan type : ProgressiveTitle : BDRip by Sensetivity-rawsWriting library : x264 core 130 r2273 b3065e6Encoding settings : cabac=1 / ref=6 / deblock=1:-2:-1 / analyse=0x3:0x113 / me=umh / subme=9 / psy=1 / psy_rd=1.00:0.00 / mixed_ref=1 / me_range=40 / chroma_me=1 / trellis=2 / 8x8dct=1 / cqm=0 / deadzone=21,11 / fast_pskip=1 / chroma_qp_offset=-2 / threads=6 / lookahead_threads=1 / sliced_threads=0 / nr=0 / decimate=1 / interlaced=0 / bluray_compat=0 / constrained_intra=0 / bframes=8 / b_pyramid=2 / b_adapt=2 / b_bias=0 / direct=3 / weightb=1 / open_gop=0 / weightp=2 / keyint=230 / keyint_min=23 / scenecut=40 / intra_refresh=0 / rc_lookahead=45 / rc=crf / mbtree=1 / crf=17.0 / qcomp=0.65 / qpmin=0 / qpmax=50 / qpstep=6 / ip_ratio=1.40 / aq=2:1.00Language : EnglishDefault : YesForced : No
Audio #1ID : 2Format : AC-3Format/Info : Audio Coding 3Mode extension : CM (complete main)Format settings, Endianness : BigCodec ID : A_AC3Duration : 1h 34mnBit rate mode : ConstantBit rate : 192 KbpsChannel(s) : 2 channelsChannel positions : Front: L RSampling rate : 48.0 KHzBit depth : 16 bitsCompression mode : LossyStream size : 130 MiB (1%)Title : Андрей ДольскийLanguage : RussianDefault : NoForced : No
Audio #2ID : 3Format : AC-3Format/Info : Audio Coding 3Mode extension : CM (complete main)Format settings, Endianness : BigCodec ID : A_AC3Duration : 1h 34mnBit rate mode : ConstantBit rate : 448 KbpsChannel(s) : 6 channelsChannel positions : Front: L C R, Side: L R, LFESampling rate : 48.0 KHzBit depth : 16 bitsCompression mode : LossyStream size : 304 MiB (3%)Language : EnglishDefault : NoForced : No
Audio #3ID : 4Format : FLACFormat/Info : Free Lossless Audio CodecCodec ID : A_FLACDuration : 1h 34mnBit rate mode : VariableChannel(s) : 2 channelsChannel positions : Front: L RSampling rate : 48.0 KHzBit depth : 16 bitsWriting library : libFLAC 1.2.1 (UTC 2007-09-17)Language : JapaneseDefault : NoForced : No
TextID : 5Format : UTF-8Codec ID : S_TEXT/UTF8Codec ID/Info : UTF-8 Plain TextLanguage : EnglishDefault : NoForced : No

Скриншоты


_________________
Показать сообщения:    

Текущее время: Сегодня 15:12

Часовой пояс: GMT



Вы не можете начинать темы
Вы не можете отвечать на сообщения
Вы не можете редактировать свои сообщения
Вы не можете удалять свои сообщения
Вы не можете голосовать в опросах
Вы не можете прикреплять файлы к сообщениям
Вы не можете скачивать файлы
Наши партнеры: интернет магазин Ивановского трикотажа textilla.ru