Маленькая принцесса Сара / A Little Princess Sara / Shoukoujo Sara (Курокава Фумио) [TV][18 из 46][Без хардсаба][JAP+SUB][1985, драма, история, сёдзё, HDTVRip][720p] :: Ивановский Торрент трекер
Важное объявление!
У Нас Все раздачи мультитрекерные, при нуле пиров в релизах, можете смело вставать на закачку!
 
Автор Сообщение

HUNTER

Стаж:
4 года 11 месяцев
Сообщений:
66051

Репутация: 101

[+] [-]
Вне форума [Профиль] [ЛС]

Маленькая принцесса Сара / A Little Princess Sara / Shoukoujo Sara
小公女[プリンセス]セーラ
Страна: Япония
Выпуск: c 06.01.1985 по 29.12.1985
Жанр: драма, история, сёдзё
Тип/Продолжительность: ТВ (46 эп.), 25 мин.
Режиссёр: Курокава Фумио
Автор оригинала: Фрэнсис Ходжсон Бернет
Студия: -Субтитры:
  • русские, софтсаб, внешними файлами
    перевод: Кряк Хрустальный
-Описание:
Действие экранизации происходит в конце XIX века в Лондоне, куда капитан Кру привёз свою единственную дочь Сару, чтобы оставить её в пансионе. Девочка тяжело переносит разлуку с отцом, но её ум, самостоятельность, чуткость и тактичность к окружающим располагают к ней новых друзей. Вернувшись в Индию, мистер Кру умирает, не оставив дочери ни пенни...
Аниме входит в тематическую группу World Masterpiece Theater и снято по мотивам известного романа "Маленькая принцесса" (A Little Princess) американской писательницы конца XIX века Фрэнсис Ходжсон Бернет (Frances Hodgson Burnett, 1849 - 1924).-Информационные ссылки: World Art || AniDB || MAL
-Качество: HDTVRip | Тип видео: Без хардсаба | Формат: MP4
Видео: 1280x720, 23.976 f/s, H.264, 8 bits, 2 298 Kb/s
Аудио: 48.0 KHz, AAC, 2 channels, 252 Kb/s
-

Подробные тех. данные

Общее
Полное имя : D:\[Flash-Ost]\Anime\Маленькая принцесса Сара [A Little Princess Sara]\A Little Princess Sara 01 (HD Remaster 1280x720 x264).mp4
Формат : MPEG-4
Профиль формата : Base Media / Version 2
Идентификатор кодека : mp42
Размер файла : 468 Мбайт
Продолжительность : 25 м.
Общий поток : 2554 Кбит/сек
Дата кодирования : UTC 2013-10-08 15:44:38
Дата пометки : UTC 2013-10-08 15:44:38
Видео
Идентификатор : 1
Формат : AVC
Формат/Информация : Advanced Video Codec
Профиль формата : High@L4.1
Параметр CABAC формата : Да
Параметр ReFrames формата : 4 кадры
Идентификатор кодека : avc1
Идентификатор кодека/Информация : Advanced Video Coding
Продолжительность : 25 м.
Вид битрейта : Переменный
Битрейт : 2298 Кбит/сек
Максимальный битрейт : 40,0 Мбит/сек
Ширина : 1280 пикс.
Высота : 720 пикс.
Соотношение сторон : 16:9
Режим частоты кадров : Постоянный
Частота кадров : 23,976 кадр/сек
Цветовое пространство : YUV
Подвыборка цветности : 4:2:0
Битовая глубина : 8 бит
Тип развёртки : Прогрессивная
Бит/(Пиксели*Кадры) : 0.104
Размер потока : 422 Мбайт (90%)
Дата кодирования : UTC 2013-10-08 15:44:08
Дата пометки : UTC 2013-10-08 15:44:57
Аудио
Идентификатор : 2
Формат : AAC
Формат/Информация : Advanced Audio Codec
Профиль формата : LC
Идентификатор кодека : 40
Продолжительность : 25 м.
Вид битрейта : Постоянный
Битрейт : 252 Кбит/сек
Канал(ы) : 2 канала(ов)
Расположение каналов : Front: L R
Частота : 48,0 КГц
Метод сжатия : С потерями
Размер потока : 46,3 Мбайт (10%)
Дата кодирования : UTC 2013-10-08 15:44:54
Дата пометки : UTC 2013-10-08 15:44:57
Меню
00:00:00.000 : OP
00:01:26.053 : A part
00:11:49.976 : B part
00:23:57.970 : Next
00:24:17.923 : ED

Список эпизодов

01. Miss Minchin's Girl's School
02. In Search of Emily
03. The First Day in School
04. Good Friend Ermengarde
05. Lottie the Squaller
06. Cinderella Becky
07. The Representative of the Class
08. A Nice Little Lady
09. A Letter from India
10. Two Presents
11. The Birthday of the Princess
12. The Dark Attic
13. A Hard Work Day
14. A Nightly Visitor
15. Peter, a Child of the Populace
16. Lottie's Adventure
17. Little Melle's Family
18. Sad Maypole Celebration
19. Call to India
20. Mysterious Visitors
21. Bitter Tears
22. The Party on the Attic
23. The Friendly Baker
24. Emily's Fate
25. Cinderella for one Day
26. The Little Teacher
27. The Homecoming of Mrs. Dufarge
28. Summer Holidays
29. Becky's Village
30. The Indian Gentleman
31. The Monster on the Attic
32. The Secret behind the Wall
33. The Beginning of School
34. Redemption in the Middle of the Storm
35. At Death's Door
36. The Beginning of the Magic
37. A Commotion on the Attic
38. The End of the Magic
39. A Cold Night in the Stable
40. Miss Amelia's Tears
41. The Halloween Party
42. On the Street
43. A Nice Parcel
44. It is the Child!
45. Miss Minchin's Remorse
46. Till We Meet Again

_________________
Показать сообщения:    

Текущее время: Сегодня 02:09

Часовой пояс: GMT



Вы не можете начинать темы
Вы не можете отвечать на сообщения
Вы не можете редактировать свои сообщения
Вы не можете удалять свои сообщения
Вы не можете голосовать в опросах
Вы не можете прикреплять файлы к сообщениям
Вы не можете скачивать файлы