Важное объявление!
У Нас Все раздачи мультитрекерные, при нуле пиров в релизах, можете смело вставать на закачку!
Статистика раздачи
Размер:     |    Зарегистрирован:     |    Скачан:     |   
Нет
 
     
 
 
Автор Сообщение

HUNTER

Стаж:
5 лет
Сообщений:
68018

Репутация: 101

[+] [-]
Вне форума [Профиль] [ЛС]

Мак - миллионер / The Real Macaw«Секрет пиратских сокровищ»-
Страна: Австралия
Студия: Adelaide Motion Picture Company, Becker Entertainment, Bellwether Films
Жанр: Приключения, семейный
Год выпуска: 1998
Продолжительность: 01:27:53-Перевод: Профессиональный (многоголосый закадровый) [Екатеринбург АРТ]
Cубтитры: нидерландские
Оригинальная аудиодорожка: английский-Режиссер: Марио Андриачи / Mario Andreacchio-В ролях: Джэми Крофт, Деборра-Ли Фёрнесс, Джо Петруцци, Джон Уотерс, Джейсон Робардс, Джон Гудман, Джерри Коннолли,
Роберт Колеби, Петра Джаред, Нэйтан Коцур
-Описание: Попугаю Маку уже 149 лет, но он все так же бодр и весел. Мак живет у своего старого приятеля, обожаемого Дедушки. Но над солнечным миром Мака, Дедушки и любящего его 15-летнего внука Сэма нависают тучи. У Дедушки очень крупные долги, и ему придется продать свой дом и отправиться в пансионат для престарелых. Мак так не хочет расставаться с Дедушкой, что открывает пораженному Сэму великую тайну — он умеет говорить! Говорить по-человечески! Более того, Мак под страшным секретом рассказывает Сэму, что помнит место на тропическом коралловом острове, где сто лет назад пираты спрятали золото и драгоценности! И Сэм вместе с неугомонным Маком отправляются на охоту за сокровищами, не зная, что о тайне пиратского клада пронюхал злобный и жадный профессор Хейген…-Доп. информация:
- русская звуковая дорожка идет первой, дорожки переключаются с пульта плеера
- за русскую звуковую дорожку спасибо molen
Бонусы: дополнительные материалы включают трейлеры фильмов
Меню: есть, язык английский, статичное, не озвученное-Sample | IMDB | КиноПоиск-Тип релиза: DVD5 (Custom)
Контейнер: DVD-Video-Видео: PAL 4:3 (720x576) VBR
Аудио 1: AC3, 2/0 ch, 192Kbps, Delay 0 mSec [Russian_MVO]
Аудио 2: AC3, 2/0 ch, 192Kbps, Delay 0 mSec [Original_Eng]-Релиз группы: -

Используемое ПО


1. BeLight - ac3 - wav;
2. Adobe Audition - синхронизация;
3. Minnetonka Audio Software - wav - ac3;

4. PgcDemux - разборка оригинального DVD;
5. MuxMan - сборка DVD;
6. DVDReMake Pro - финальный проект.

DVDInfo

Title:
Size: 3.86 Gb ( 4 045 718 KBytes ) - DVD-5
Enabled regions: 1, 2, 3, 4, 5, 6
VTS_01 :
Play Length: 01:27:52+00:02:01+00:02:26+00:01:46+00:02:17+00:02:09+00:02:21+00:02:24+00:01:14
Video: PAL 4:3 (720x576) VBR
Audio:
Russian (Dolby AC3, 2 ch)
English (Dolby AC3, 2 ch)
Subtitles:
Nederlands
Menu Video:
PAL 4:3 (720x576) VBR
Menu Audio:
Not specified (Dolby AC3, 2 ch)
Menu Subtitles:
Not specified
Menu Nederlands Language Unit :
Root Menu
Subpicture Menu
Angle menu

MediaInfo

General
Complete name : D:\Мои релизы\The Real Macaw [DVD5]\VIDEO_TS\VIDEO_TS.BUP
Format : DVD Video
Format profile : Menu
File size : 14.0 KiB
Video
ID : 224 (0xE0)
Format : MPEG Video
Format version : Version 2
Bit rate mode : Variable
Width : 720 pixels
Height : 576 pixels
Display aspect ratio : 4:3
Frame rate : 25.000 fps
Standard : PAL
Compression mode : Lossy
Audio
Format : AC-3
Format/Info : Audio Coding 3
Channel(s) : 2 channels
Sampling rate : 48.0 KHz
Compression mode : Lossy
Text
Format : RLE
Format/Info : Run-length encoding
Bit depth : 2 bits
General
Complete name : D:\Мои релизы\The Real Macaw [DVD5]\VIDEO_TS\VIDEO_TS.IFO
Format : DVD Video
Format profile : Menu
File size : 14.0 KiB
Video
ID : 224 (0xE0)
Format : MPEG Video
Format version : Version 2
Bit rate mode : Variable
Width : 720 pixels
Height : 576 pixels
Display aspect ratio : 4:3
Frame rate : 25.000 fps
Standard : PAL
Compression mode : Lossy
Audio
Format : AC-3
Format/Info : Audio Coding 3
Channel(s) : 2 channels
Sampling rate : 48.0 KHz
Compression mode : Lossy
Text
Format : RLE
Format/Info : Run-length encoding
Bit depth : 2 bits
General
Complete name : D:\Мои релизы\The Real Macaw [DVD5]\VIDEO_TS\VIDEO_TS.VOB
Format : MPEG-PS
File size : 1.22 MiB
Duration : 26h 30mn
Overall bit rate : 107 bps
Video
ID : 224 (0xE0)
Format : MPEG Video
Format version : Version 2
Format profile : Main@Main
Format settings, BVOP : Yes
Format settings, Matrix : Default
Duration : 19s 627ms
Bit rate mode : Constant
Width : 720 pixels
Height : 576 pixels
Display aspect ratio : 4:3
Frame rate : 25.000 fps
Standard : PAL
Color space : YUV
Chroma subsampling : 4:2:0
Bit depth : 8 bits
Compression mode : Lossy
Audio
ID : 128 (0x80)
Format : AC-3
Format/Info : Audio Coding 3
Mode extension : CM (complete main)
Duration : 512ms
Bit rate mode : Constant
Bit rate : 192 Kbps
Channel(s) : 2 channels
Channel positions : Front: L R
Sampling rate : 48.0 KHz
Bit depth : 16 bits
Compression mode : Lossy
Video delay : 18s 619ms
Stream size : 12.0 KiB (1%)
Text
ID : 32 (0x20)
Format : RLE
Format/Info : Run-length encoding
Duration : 26h 30mn
Video delay : -162ms
Menu
General
Complete name : D:\Мои релизы\The Real Macaw [DVD5]\VIDEO_TS\VTS_01_0.BUP
Format : DVD Video
Format profile : Program
File size : 76.0 KiB
Duration : 1h 27mn
Overall bit rate : 118 bps
Video
ID : 224 (0xE0)
Format : MPEG Video
Format version : Version 2
Duration : 1h 27mn
Bit rate mode : Variable
Width : 720 pixels
Height : 576 pixels
Display aspect ratio : 4:3
Frame rate : 25.000 fps
Standard : PAL
Compression mode : Lossy
Audio #1
ID : 128 (0x80)
Format : AC-3
Format/Info : Audio Coding 3
Duration : 1h 27mn
Channel(s) : 2 channels
Sampling rate : 48.0 KHz
Compression mode : Lossy
Language : Russian
Audio #2
ID : 129 (0x81)
Format : AC-3
Format/Info : Audio Coding 3
Duration : 1h 27mn
Channel(s) : 2 channels
Sampling rate : 48.0 KHz
Compression mode : Lossy
Language : English
Text
ID : 32 (0x20)
Format : RLE
Format/Info : Run-length encoding
Bit depth : 2 bits
Language : Dutch
Menu #1
Duration : 1h 27mn
00:00:00.000 : Chapter 1
00:06:14.400 : Chapter 2
00:13:01.040 : Chapter 3
00:17:11.680 : Chapter 4
00:20:54.240 : Chapter 5
00:24:18.080 : Chapter 6
00:27:57.520 : Chapter 7
00:32:46.120 : Chapter 8
00:42:57.120 : Chapter 9
00:46:43.320 : Chapter 10
01:04:43.880 : Chapter 11
01:07:30.800 : Chapter 12
01:19:32.560 : Chapter 13
List (Audio) : 0 / 1
List (Subtitles 4/3) : 0
List (Subtitles Wide) : 0
List (Subtitles Letterbox) : 0
List (Subtitles Pan&Scan) : 0
Menu #2
Duration : 2mn 1s
00:00:00.000 : Chapter 1
List (Audio) : 0
List (Subtitles 4/3) : 0
List (Subtitles Wide) : 0
List (Subtitles Letterbox) : 0
List (Subtitles Pan&Scan) : 0
General
Complete name : D:\Мои релизы\The Real Macaw [DVD5]\VIDEO_TS\VTS_01_0.IFO
Format : DVD Video
Format profile : Program
File size : 76.0 KiB
Duration : 1h 27mn
Overall bit rate : 118 bps
Video
ID : 224 (0xE0)
Format : MPEG Video
Format version : Version 2
Duration : 1h 27mn
Bit rate mode : Variable
Width : 720 pixels
Height : 576 pixels
Display aspect ratio : 4:3
Frame rate : 25.000 fps
Standard : PAL
Compression mode : Lossy
Audio #1
ID : 128 (0x80)
Format : AC-3
Format/Info : Audio Coding 3
Duration : 1h 27mn
Channel(s) : 2 channels
Sampling rate : 48.0 KHz
Compression mode : Lossy
Language : Russian
Audio #2
ID : 129 (0x81)
Format : AC-3
Format/Info : Audio Coding 3
Duration : 1h 27mn
Channel(s) : 2 channels
Sampling rate : 48.0 KHz
Compression mode : Lossy
Language : English
Text
ID : 32 (0x20)
Format : RLE
Format/Info : Run-length encoding
Bit depth : 2 bits
Language : Dutch
Menu #1
Duration : 1h 27mn
00:00:00.000 : Chapter 1
00:06:14.400 : Chapter 2
00:13:01.040 : Chapter 3
00:17:11.680 : Chapter 4
00:20:54.240 : Chapter 5
00:24:18.080 : Chapter 6
00:27:57.520 : Chapter 7
00:32:46.120 : Chapter 8
00:42:57.120 : Chapter 9
00:46:43.320 : Chapter 10
01:04:43.880 : Chapter 11
01:07:30.800 : Chapter 12
01:19:32.560 : Chapter 13
List (Audio) : 0 / 1
List (Subtitles 4/3) : 0
List (Subtitles Wide) : 0
List (Subtitles Letterbox) : 0
List (Subtitles Pan&Scan) : 0
Menu #2
Duration : 2mn 1s
00:00:00.000 : Chapter 1
List (Audio) : 0
List (Subtitles 4/3) : 0
List (Subtitles Wide) : 0
List (Subtitles Letterbox) : 0
List (Subtitles Pan&Scan) : 0
General
Complete name : D:\Мои релизы\The Real Macaw [DVD5]\VIDEO_TS\VTS_01_0.VOB
Format : MPEG-PS
File size : 520 KiB
Duration : 26h 30mn
Overall bit rate : 44 bps
Video
ID : 224 (0xE0)
Format : MPEG Video
Format version : Version 2
Format profile : Main@Main
Format settings, BVOP : No
Format settings, Matrix : Default
Format settings, GOP : N=1
Duration : 207ms
Bit rate mode : Constant
Width : 720 pixels
Height : 576 pixels
Display aspect ratio : 16:9
Frame rate : 25.000 fps
Standard : PAL
Color space : YUV
Chroma subsampling : 4:2:0
Bit depth : 8 bits
Scan type : Progressive
Scan order : Top Field First
Compression mode : Lossy
Text
ID : 32 (0x20)
Format : RLE
Format/Info : Run-length encoding
Duration : 26h 30mn
Menu
General
Complete name : D:\Мои релизы\The Real Macaw [DVD5]\VIDEO_TS\VTS_01_1.VOB
Format : MPEG-PS
File size : 1 024 MiB
Duration : 28mn 40s
Overall bit rate : 4 993 Kbps
Video
ID : 224 (0xE0)
Format : MPEG Video
Format version : Version 2
Format profile : Main@Main
Format settings, BVOP : Yes
Format settings, Matrix : Default
Duration : 28mn 40s
Bit rate mode : Variable
Bit rate : 4 500 Kbps
Width : 720 pixels
Height : 576 pixels
Display aspect ratio : 4:3
Frame rate : 25.000 fps
Standard : PAL
Color space : YUV
Chroma subsampling : 4:2:0
Bit depth : 8 bits
Scan type : Interlaced
Scan order : Top Field First
Compression mode : Lossy
Bits/(Pixel*Frame) : 0.434
Stream size : 925 MiB (90%)
Audio #1
ID : 128 (0x80)
Format : AC-3
Format/Info : Audio Coding 3
Mode extension : CM (complete main)
Duration : 28mn 40s
Bit rate mode : Constant
Bit rate : 192 Kbps
Channel(s) : 2 channels
Channel positions : Front: L R
Sampling rate : 48.0 KHz
Bit depth : 16 bits
Compression mode : Lossy
Stream size : 39.4 MiB (4%)
Audio #2
ID : 129 (0x81)
Format : AC-3
Format/Info : Audio Coding 3
Mode extension : CM (complete main)
Duration : 28mn 40s
Bit rate mode : Constant
Bit rate : 192 Kbps
Channel(s) : 2 channels
Channel positions : Front: L R
Sampling rate : 48.0 KHz
Bit depth : 16 bits
Compression mode : Lossy
Stream size : 39.4 MiB (4%)
Menu
General
Complete name : D:\Мои релизы\The Real Macaw [DVD5]\VIDEO_TS\VTS_01_2.VOB
Format : MPEG-PS
File size : 1 024 MiB
Duration : 28mn 40s
Overall bit rate : 4 994 Kbps
Video
ID : 224 (0xE0)
Format : MPEG Video
Format version : Version 2
Format profile : Main@Main
Format settings, BVOP : Yes
Format settings, Matrix : Default
Duration : 28mn 39s
Bit rate mode : Variable
Bit rate : 4 500 Kbps
Width : 720 pixels
Height : 576 pixels
Display aspect ratio : 4:3
Frame rate : 25.000 fps
Standard : PAL
Color space : YUV
Chroma subsampling : 4:2:0
Bit depth : 8 bits
Scan type : Interlaced
Scan order : Top Field First
Compression mode : Lossy
Bits/(Pixel*Frame) : 0.434
Stream size : 925 MiB (90%)
Audio #1
ID : 128 (0x80)
Format : AC-3
Format/Info : Audio Coding 3
Mode extension : CM (complete main)
Duration : 28mn 40s
Bit rate mode : Constant
Bit rate : 192 Kbps
Channel(s) : 2 channels
Channel positions : Front: L R
Sampling rate : 48.0 KHz
Bit depth : 16 bits
Compression mode : Lossy
Video delay : -520ms
Stream size : 39.4 MiB (4%)
Audio #2
ID : 129 (0x81)
Format : AC-3
Format/Info : Audio Coding 3
Mode extension : CM (complete main)
Duration : 28mn 40s
Bit rate mode : Constant
Bit rate : 192 Kbps
Channel(s) : 2 channels
Channel positions : Front: L R
Sampling rate : 48.0 KHz
Bit depth : 16 bits
Compression mode : Lossy
Video delay : -520ms
Stream size : 39.4 MiB (4%)
Text
ID : 32 (0x20)
Format : RLE
Format/Info : Run-length encoding
Menu
General
Complete name : D:\Мои релизы\The Real Macaw [DVD5]\VIDEO_TS\VTS_01_3.VOB
Format : MPEG-PS
File size : 1 024 MiB
Duration : 28mn 40s
Overall bit rate : 4 992 Kbps
Video
ID : 224 (0xE0)
Format : MPEG Video
Format version : Version 2
Format profile : Main@Main
Format settings, BVOP : Yes
Format settings, Matrix : Default
Duration : 28mn 40s
Bit rate mode : Variable
Bit rate : 4 500 Kbps
Width : 720 pixels
Height : 576 pixels
Display aspect ratio : 4:3
Frame rate : 25.000 fps
Standard : PAL
Color space : YUV
Chroma subsampling : 4:2:0
Bit depth : 8 bits
Scan type : Interlaced
Scan order : Top Field First
Compression mode : Lossy
Bits/(Pixel*Frame) : 0.434
Stream size : 925 MiB (90%)
Audio #1
ID : 128 (0x80)
Format : AC-3
Format/Info : Audio Coding 3
Mode extension : CM (complete main)
Duration : 28mn 40s
Bit rate mode : Constant
Bit rate : 192 Kbps
Channel(s) : 2 channels
Channel positions : Front: L R
Sampling rate : 48.0 KHz
Bit depth : 16 bits
Compression mode : Lossy
Video delay : -616ms
Stream size : 39.4 MiB (4%)
Audio #2
ID : 129 (0x81)
Format : AC-3
Format/Info : Audio Coding 3
Mode extension : CM (complete main)
Duration : 28mn 40s
Bit rate mode : Constant
Bit rate : 192 Kbps
Channel(s) : 2 channels
Channel positions : Front: L R
Sampling rate : 48.0 KHz
Bit depth : 16 bits
Compression mode : Lossy
Video delay : -616ms
Stream size : 39.4 MiB (4%)
Text
ID : 32 (0x20)
Format : RLE
Format/Info : Run-length encoding
Video delay : 1s 520ms
Menu
General
Complete name : D:\Мои релизы\The Real Macaw [DVD5]\VIDEO_TS\VTS_01_4.VOB
Format : MPEG-PS
File size : 877 MiB
Overall bit rate : 0
Video
ID : 224 (0xE0)
Format : MPEG Video
Format version : Version 2
Format profile : Main@Main
Format settings, BVOP : Yes
Format settings, Matrix : Default
Bit rate mode : Variable
Nominal bit rate : 4 500 Kbps
Width : 720 pixels
Height : 576 pixels
Display aspect ratio : 4:3
Frame rate : 25.000 fps
Standard : PAL
Color space : YUV
Chroma subsampling : 4:2:0
Bit depth : 8 bits
Scan type : Interlaced
Scan order : Top Field First
Compression mode : Lossy
Bits/(Pixel*Frame) : 0.434
Audio #1
ID : 128 (0x80)
Format : AC-3
Format/Info : Audio Coding 3
Mode extension : CM (complete main)
Duration : -1h 24mn
Bit rate mode : Constant
Bit rate : 192 Kbps
Channel(s) : 2 channels
Channel positions : Front: L R
Sampling rate : 48.0 KHz
Bit depth : 16 bits
Compression mode : Lossy
Video delay : -560ms
Stream size : 2.05 ?iB
Audio #2
ID : 129 (0x81)
Format : AC-3
Format/Info : Audio Coding 3
Mode extension : CM (complete main)
Bit rate mode : Constant
Bit rate : 192 Kbps
Channel(s) : 2 channels
Channel positions : Front: L R
Sampling rate : 48.0 KHz
Bit depth : 16 bits
Compression mode : Lossy
Video delay : -560ms
Stream size : 403 ?iB
Menu

Скриншоты меню

Скриншоты

Скриншоты доп. материалов


_________________
Показать сообщения:    

Текущее время: Сегодня 10:44

Часовой пояс: GMT



Вы не можете начинать темы
Вы не можете отвечать на сообщения
Вы не можете редактировать свои сообщения
Вы не можете удалять свои сообщения
Вы не можете голосовать в опросах
Вы не можете прикреплять файлы к сообщениям
Вы не можете скачивать файлы