Важное объявление!
У Нас Все раздачи мультитрекерные, при нуле пиров в релизах, можете смело вставать на закачку!
Статистика раздачи
Размер:     |    Зарегистрирован:     |    Скачан:     |   
Нет
 
     
 
 
Автор Сообщение

HUNTER

Стаж:
5 лет
Сообщений:
67920

Репутация: 101

[+] [-]
Вне форума [Профиль] [ЛС]

Макс Стил. Заря Морфоса / Max Steel: The Dawn of Morphos
Год выпуска: 2015
Страна: США, Nerd Corps Entertainment, Mattel Playground Productions, FremantleMedia Enterprises
Жанр: приключения, семейный, детский
Продолжительность: 00:41:23
Перевод: Профессиональный (дублированный)
Русские субтитры: нет
Режиссёр: Andrew Doucette / Эндрю Доусетт, Ben Anderson / Бэн Андерсон
Описание: Супергерой Макс Стил защищает город от чудовищного великана Морфоса.
После того, как Макс Стил расквитался с монстром Макино, всё было спокойно. Но затишье продолжалось недолго: злодей Майлз Дредд вернулся и изобрел новое чудовище, названное Морфосом. Бороться с ним практически невозможно, потому что оно умеет копировать любые способности добрых или злых героев. Морфос оказался самым опасным врагом, с которым когда-либо сталкивался Макс Стил. Противостояние начинается!
Релиз группы:
Трансляция спутникового канала:

Семпл: https://yadi.sk/i/aXUDSwcQjoktu
Качество видео: DVB
Формат видео: MPEG-PS
Видео: MPEG2 Video, 720x576 (4:3), 25 fps, 2800 kbps
Аудио: MPEG Audiо, 2 сh, 48 kHz, 192 kbps

MediaInfo

General
Complete name : D:\Макс Стил. Заря Морфоса. (2015)_DVB by SLuMeP.mpg
Format : MPEG-PS
File size : 917 MiB
Duration : 41mn 23s
Overall bit rate mode : Variable
Overall bit rate : 3 097 Kbps
Video
ID : 224 (0xE0)
Format : MPEG Video
Format version : Version 2
Format profile : Main@Main
Format settings, BVOP : No
Format settings, Matrix : Custom
Format settings, GOP : Variable
Duration : 41mn 23s
Bit rate mode : Variable
Bit rate : 2 844 Kbps
Maximum bit rate : 5 000 Kbps
Width : 720 pixels
Height : 576 pixels
Display aspect ratio : 4:3
Frame rate : 25.000 fps
Standard : PAL
Color space : YUV
Chroma subsampling : 4:2:0
Bit depth : 8 bits
Scan type : Interlaced
Scan order : Top Field First
Compression mode : Lossy
Bits/(Pixel*Frame) : 0.274
Time code of first frame : 00:00:00:00
Time code source : Group of pictures header
Stream size : 842 MiB (92%)
Audio
ID : 192 (0xC0)
Format : MPEG Audio
Format version : Version 1
Format profile : Layer 2
Duration : 41mn 23s
Bit rate mode : Constant
Bit rate : 192 Kbps
Channel(s) : 2 channels
Sampling rate : 48.0 KHz
Compression mode : Lossy
Stream size : 56.9 MiB (6%)

Скриншоты



_________________
Показать сообщения:    

Текущее время: Сегодня 08:56

Часовой пояс: GMT



Вы не можете начинать темы
Вы не можете отвечать на сообщения
Вы не можете редактировать свои сообщения
Вы не можете удалять свои сообщения
Вы не можете голосовать в опросах
Вы не можете прикреплять файлы к сообщениям
Вы не можете скачивать файлы