Важное объявление!
У Нас Все раздачи мультитрекерные, при нуле пиров в релизах, можете смело вставать на закачку!
Статистика раздачи
Размер:     |    Зарегистрирован:     |    Скачан:     |   
Нет
 
     
 
 
Автор Сообщение

HUNTER

Стаж:
5 лет
Сообщений:
68414

Репутация: 101

[+] [-]
Вне форума [Профиль] [ЛС]

Макбет / Macbeth-
Год выпуска: 1948
Страна: США
Жанр: драма, история
Продолжительность: 01:47:16
Перевод:
  • Профессиональный (многоголосый закадровый) ВГТРК
  • Одноголосый закадровый (Shinigami)
  • Одноголосый закадровый
Оригинальная аудиодорожка: Английская
Cубтитры: Русские (JayBee по Пастернаку), русские (по Соловьеву), английские-Режиссер: Орсон Уэллс
В ролях: Орсон Уэллс, Жанетт Нолан, Дэн О’Херлихи, Родди МакДауэлл, Эдгар Барье, Алан Напье, Эрскин Сэнфорд, Джон Диркес, Кин Кертис, Пегги Уэббер-Описание:
Киноверсия, основанная на истории реального Макбета - короля Шотландии, представляется режиссером как архетипичная история об опасности чрезмерной жажды власти и измене друзьям.- | | Сэмпл-Качество: BDRemux 1080p (Macbeth 1948 BluRay 1080p AVC DTS-HD MA1.0-CHDBits)
Контейнер: MKV
Видео: 1920x1080 (1.33:1), 23.976 fps, 22074 kbps
Аудио 1: Русский AC3 2.0, 48 kHz, 192 kbps — ВГТРК
Аудио 2: Русский AC3 2.0, 48 kHz, 192 kbps — Shinigami
Аудио 3: Русский AC3 2.0, 48 kHz, 192 kbps — VO
Аудио 4: Английский DTS-HD MA 1.0, 48 kHz, 846 kbps, 16-bit (DTS Core: 1.0, 48 kHz, 768 kbps, 16-bit)
Формат субтитров: softsub (SRT)

Скриншоты


MI

General
Unique ID : 217563461465262662903733737873374269034 (0xA3AD32D278D90060819EB84DE6354E6A)
Complete name : Macbeth.1948.1080p.Remux.mkv
Format : Matroska
Format version : Version 2
File size : 17.6 GiB
Duration : 1h 47mn
Overall bit rate mode : Variable
Overall bit rate : 23.5 Mbps
Movie name : Macbeth (1948) – RuTracker
Encoded date : UTC 2013-12-20 16:59:04
Writing application : mkvmerge v6.1.0 ('Old Devil') built on Mar 2 2013 14:32:37
Writing library : libebml v1.3.0 + libmatroska v1.4.0
Attachment : Yes
Video
ID : 1
Format : AVC
Format/Info : Advanced Video Codec
Format profile : High@L4.1
Format settings, CABAC : Yes
Format settings, ReFrames : 4 frames
Codec ID : V_MPEG4/ISO/AVC
Duration : 1h 47mn
Bit rate mode : Variable
Maximum bit rate : 32.0 Mbps
Width : 1 920 pixels
Height : 1 080 pixels
Display aspect ratio : 16:9
Frame rate mode : Constant
Frame rate : 23.976 fps
Standard : NTSC
Color space : YUV
Chroma subsampling : 4:2:0
Bit depth : 8 bits
Scan type : Progressive
Title : Macbeth 1948 BluRay 1080p AVC DTS-HD MA1.0-CHDBits
Language : English
Default : Yes
Forced : No
Color primaries : BT.709
Transfer characteristics : BT.709
Matrix coefficients : BT.709
Audio #1
ID : 2
Format : AC-3
Format/Info : Audio Coding 3
Mode extension : CM (complete main)
Format settings, Endianness : Big
Codec ID : A_AC3
Duration : 1h 47mn
Bit rate mode : Constant
Bit rate : 192 Kbps
Channel(s) : 2 channels
Channel positions : Front: L R
Sampling rate : 48.0 KHz
Bit depth : 16 bits
Compression mode : Lossy
Stream size : 147 MiB (1%)
Title : MVO – ВГТРК
Language : Russian
Default : Yes
Forced : No
Audio #2
ID : 3
Format : AC-3
Format/Info : Audio Coding 3
Mode extension : CM (complete main)
Format settings, Endianness : Big
Codec ID : A_AC3
Duration : 1h 47mn
Bit rate mode : Constant
Bit rate : 192 Kbps
Channel(s) : 2 channels
Channel positions : Front: L R
Sampling rate : 48.0 KHz
Bit depth : 16 bits
Compression mode : Lossy
Stream size : 147 MiB (1%)
Title : VO – Shinigami
Language : Russian
Default : No
Forced : No
Audio #3
ID : 4
Format : AC-3
Format/Info : Audio Coding 3
Mode extension : CM (complete main)
Format settings, Endianness : Big
Codec ID : A_AC3
Duration : 1h 47mn
Bit rate mode : Constant
Bit rate : 192 Kbps
Channel(s) : 2 channels
Channel positions : Front: L R
Sampling rate : 48.0 KHz
Bit depth : 16 bits
Compression mode : Lossy
Stream size : 147 MiB (1%)
Title : VO
Language : Russian
Default : No
Forced : No
Audio #4
ID : 5
Format : DTS
Format/Info : Digital Theater Systems
Format profile : MA / Core
Mode : 16
Format settings, Endianness : Big
Codec ID : A_DTS
Duration : 1h 47mn
Bit rate mode : Variable
Bit rate : Unknown / 768 Kbps
Channel(s) : 1 channel
Channel positions : Front: C
Sampling rate : 48.0 KHz
Bit depth : 16 bits
Compression mode : Lossless / Lossy
Title : Original
Language : English
Default : No
Forced : No
Text #1
ID : 6
Format : UTF-8
Codec ID : S_TEXT/UTF8
Codec ID/Info : UTF-8 Plain Text
Title : JayBee (Б.Пастернак)
Language : Russian
Default : No
Forced : No
Text #2
ID : 7
Format : UTF-8
Codec ID : S_TEXT/UTF8
Codec ID/Info : UTF-8 Plain Text
Title : С.Соловьев
Language : Russian
Default : No
Forced : No
Text #3
ID : 8
Format : UTF-8
Codec ID : S_TEXT/UTF8
Codec ID/Info : UTF-8 Plain Text
Language : English
Default : No
Forced : No
Menu
00:00:00.000 : en:Chapter 01
00:11:07.375 : en:Chapter 02
00:19:21.910 : en:Chapter 03
00:33:26.004 : en:Chapter 04
00:43:46.665 : en:Chapter 05
00:55:52.891 : en:Chapter 06
01:07:31.005 : en:Chapter 07
01:13:39.998 : en:Chapter 08
01:20:11.389 : en:Chapter 09
01:27:07.639 : en:Chapter 10
01:34:34.085 : en:Chapter 11
01:40:35.571 : en:Chapter 12
01:47:04.668 : en:Chapter 13

_________________
Показать сообщения:    

Текущее время: Сегодня 19:17

Часовой пояс: GMT



Вы не можете начинать темы
Вы не можете отвечать на сообщения
Вы не можете редактировать свои сообщения
Вы не можете удалять свои сообщения
Вы не можете голосовать в опросах
Вы не можете прикреплять файлы к сообщениям
Вы не можете скачивать файлы