Важное объявление!
У Нас Все раздачи мультитрекерные, при нуле пиров в релизах, можете смело вставать на закачку!
 
Автор Сообщение

димитри37

Стаж:
3 года 10 месяцев
Сообщений:
1237

Репутация: 127

[+] [-]
Вне форума [Профиль] [ЛС]

Майор Пэйн / Major Payne
Страна: США
Жанр: Комедия
Год выпуска: 1995
Продолжительность: 01:37:00
Перевод 1: Профессиональный (многоголосый закадровый) НТВ+
Перевод 2: Профессиональный (многоголосый закадровый) R5
Перевод 3: Профессиональный (многоголосый закадровый) Шестой канал по заказу СТС
Оригинальная аудиодорожка: английский
Субтитры: русские, английские
Режиссер: Ник Касл / Nick Castle
Описание: Майору никак не присвоят звание полковника по одной причине — он умеет только убивать, ни на что другое он просто не способен. Его отправляют в отставку. Работа в полиции ему не подходит, и наш герой умирает от скуки в одном из номеров отеля. Неожиданно он получает предложение стать инструктором по военной подготовке в военном учебном заведении. О том, как сложатся отношения «жестокосердного солдафона» с юными подопечными и одной весьма привлекательной преподавательницей рассказывает эта веселая комедия, полная забавных шуток и смешных ситуаций.
Кинопоиск
IMDb
Качество видео: WEB-DLRip-AVC
Формат видео: MKV
Видео: MPEG-4 AVC, 1024x560, 2769 kbps, 23.976 fps, 0.201 bit/pixel
Аудио 1: Russian: AC3 5.1, 48 kHz, 448 kbps
Аудио 2: Russian: AC3 2.0, 48 kHz, 192 kbps
Аудио 3: Russian: AC3 2.0, 48 kHz, 192 kbps
Аудио 4: English: AC3 5.1, 48 kHz, 384 kbps
Семпл

MediaInfo

General
Unique ID : 234867775454666202831342297907939503857 (0xB0B1E35F3D15BF67AC0BCB4E4BF3EEF1)
Complete name : F:\Майор Пэйн.1995.x264.WEB-DLRip.(AVC)\Майор Пэйн.1995.x264.WEB-DLRip.(AVC).mkv
Format : Matroska
Format version : Version 2
File size : 2.18 GiB
Duration : 1h 37mn
Overall bit rate : 3 217 Kbps
Encoded date : UTC 2013-04-29 17:20:06
Writing application : mkvmerge v6.1.0 ('Old Devil') built on Mar 2 2013 14:32:37
Writing library : libebml v1.3.0 + libmatroska v1.4.0
Video
ID : 1
Format : AVC
Format/Info : Advanced Video Codec
Format profile : High@L4.1
Format settings, CABAC : Yes
Format settings, ReFrames : 7 frames
Codec ID : V_MPEG4/ISO/AVC
Duration : 1h 37mn
Bit rate : 2 769 Kbps
Width : 1 024 pixels
Height : 560 pixels
Display aspect ratio : 1.85:1
Frame rate mode : Constant
Frame rate : 23.976 fps
Color space : YUV
Chroma subsampling : 4:2:0
Bit depth : 8 bits
Scan type : Progressive
Bits/(Pixel*Frame) : 0.201
Stream size : 1.83 GiB (84%)
Title : Major Payne
Writing library : x264 core 130 r2273 b3065e6
Encoding settings : cabac=1 / ref=7 / deblock=1:-2:-2 / analyse=0x3:0x133 / me=umh / subme=10 / psy=1 / psy_rd=1.00:0.10 / mixed_ref=1 / me_range=24 / chroma_me=1 / trellis=2 / 8x8dct=1 / cqm=0 / deadzone=21,11 / fast_pskip=0 / chroma_qp_offset=-3 / threads=6 / lookahead_threads=1 / sliced_threads=0 / nr=0 / decimate=1 / interlaced=0 / bluray_compat=0 / constrained_intra=0 / bframes=7 / b_pyramid=2 / b_adapt=2 / b_bias=0 / direct=3 / weightb=1 / open_gop=0 / weightp=2 / keyint=240 / keyint_min=22 / scenecut=40 / intra_refresh=0 / rc_lookahead=40 / rc=2pass / mbtree=1 / bitrate=2769 / ratetol=1.0 / qcomp=0.60 / qpmin=10 / qpmax=51 / qpstep=4 / cplxblur=20.0 / qblur=0.5 / vbv_maxrate=62500 / vbv_bufsize=78125 / nal_hrd=none / ip_ratio=1.40 / aq=1:1.00
Default : Yes
Forced : No
Audio
ID : 2
Format : AC-3
Format/Info : Audio Coding 3
Mode extension : CM (complete main)
Format settings, Endianness : Big
Codec ID : A_AC3
Duration : 1h 37mn
Bit rate mode : Constant
Bit rate : 448 Kbps
Channel(s) : 6 channels
Channel positions : Front: L C R, Side: L R, LFE
Sampling rate : 48.0 KHz
Bit depth : 16 bits
Compression mode : Lossy
Stream size : 311 MiB (14%)
Title : НТВ+
Language : Russian
Default : Yes
Forced : No

Скриншот c названием фильма

Скриншоты

димитри37

Стаж:
3 года 10 месяцев
Сообщений:
1237

Репутация: 127

[+] [-]
Вне форума [Профиль] [ЛС]

Непонимаю причины статуса недооформленно. Скриншоты соответствуют. проверял Фотошопом. размер 1024x560пикс. разрешение 72пикс/дюйм.
Показать сообщения:    

Текущее время: Сегодня 21:50

Часовой пояс: GMT



Вы не можете начинать темы
Вы не можете отвечать на сообщения
Вы не можете редактировать свои сообщения
Вы не можете удалять свои сообщения
Вы не можете голосовать в опросах
Вы не можете прикреплять файлы к сообщениям
Вы не можете скачивать файлы
Наши партнеры: интернет магазин Ивановского трикотажа textilla.ru