Важное объявление!
У Нас Все раздачи мультитрекерные, при нуле пиров в релизах, можете смело вставать на закачку!
Статистика раздачи
Размер:     |    Зарегистрирован:     |    Скачан:     |   
Нет
 
     
 
 
Автор Сообщение

HUNTER

Стаж:
5 лет 1 месяц
Сообщений:
68439

Репутация: 101

[+] [-]
Вне форума [Профиль] [ЛС]

Майор Данди / Major Dundee
-Страна: США
Жанр: приключения, вестерн
Год выпуска: 1965
Продолжительность: 02:15:47-Перевод: Профессиональный (многоголосый закадровый)
Cубтитры: английские
Оригинальная аудиодорожка: английский-Режиссер: Сэм Пекинпа / Sam Peckinpah-В ролях: Чарлтон Хестон, Ричард Харрис, Джим Хаттон, Джеймс Коберн, Майкл Андерсон мл., Зента Бергер, Марио Адорф, Брок Питерс, Уоррен Оутс, Бен Джонсон-Описание:
Эймор Данди после неудачи в сражении при Геттисберге, разжалован и вынужден возглавить лагерь военнопленных конфедератов на территории штата Нью-Мехико. После того, как на местное ранчо нападает отряд апачей, Данди решает начать борьбу с апачами, чтобы восстановить своё доброе имя. Собрав отряд из солдат армии Союза, военнопленных из лагеря, местных жителей и индейских проводников, он отправляется в Мексику, в погоню за апачами. Командир конфедератов и старый враг Данди, Тирин галантно соглашается забыть старую вражду и помочь Данди, но только до тех пор, пока главарь апачей не будет пойман.-Сэмпл: Скачать-Тип релиза: BDRip 720p
Контейнер: MKV
Видео: 1280x544 (2.35:1); 8 499 Kbps; 23.976 fps; 0.306 bpp
Аудио 1: Russian; AC3; 48.0 KHz; 2ch; 192 Kbps
Аудио 2: English; AC3; 48.0 KHz; 6ch; 640 Kbps
Аудио 3: English; AAC; 48.0 KHz; 2ch; 144 Kbps Commentary with Nick Redman, Paul Seydor, Garner Simmons and David Weddle

MediaInfo

Format : Matroska
Format version : Version 4 / Version 2
File size : 9.15 GiB
Duration : 2h 15mn
Overall bit rate : 9 652 Kbps
Movie name : Major Dundee 1965 720p BluRay DD5.1 x264-TayTO
Encoded date : UTC 2015-09-28 07:59:11
Writing application : mkvmerge v8.1.0 ('Psychedelic Postcard') 64bit
Writing library : libebml v1.3.1 + libmatroska v1.4.2
Attachements : poster.jpg
DURATION : 02:13:18.365000000
NUMBER_OF_FRAMES : 1645
NUMBER_OF_BYTES : 50847
_STATISTICS_WRITING_APP : mkvmerge v8.1.0 ('Psychedelic Postcard') 64bit
_STATISTICS_WRITING_DATE_UTC : 2015-09-28 07:59:11
_STATISTICS_TAGS : BPS DURATION NUMBER_OF_FRAMES NUMBER_OF_BYTES
Video
ID : 1
Format : AVC
Format/Info : Advanced Video Codec
Format profile : High@L4.1
Format settings, CABAC : Yes
Format settings, ReFrames : 12 frames
Codec ID : V_MPEG4/ISO/AVC
Duration : 2h 15mn
Width : 1 280 pixels
Height : 544 pixels
Display aspect ratio : 2.35:1
Frame rate mode : Constant
Frame rate : 23.976 fps
Color space : YUV
Chroma subsampling : 4:2:0
Bit depth : 8 bits
Scan type : Progressive
Writing library : x264 core 138 r2358 9e941d1
Encoding settings : cabac=1 / ref=12 / deblock=1:-3:-3 / analyse=0x3:0x133 / me=tesa / subme=11 / psy=1 / psy_rd=1.20:0.00 / mixed_ref=1 / me_range=16 / chroma_me=1 / trellis=2 / 8x8dct=1 / cqm=0 / deadzone=21,11 / fast_pskip=0 / chroma_qp_offset=-2 / threads=12 / lookahead_threads=2 / sliced_threads=0 / nr=0 / decimate=1 / interlaced=0 / bluray_compat=0 / constrained_intra=0 / bframes=9 / b_pyramid=2 / b_adapt=2 / b_bias=0 / direct=3 / weightb=1 / open_gop=0 / weightp=2 / keyint=250 / keyint_min=23 / scenecut=40 / intra_refresh=0 / rc=crf / mbtree=0 / crf=15.3 / qcomp=0.65 / qpmin=0 / qpmax=69 / qpstep=4 / ip_ratio=1.40 / pb_ratio=1.30 / aq=1:0.60
Language : English
Default : Yes
Forced : No
Matrix coefficients : BT.709
DURATION : 02:15:47.014000000
NUMBER_OF_FRAMES : 195333
NUMBER_OF_BYTES : 8829333141
_STATISTICS_WRITING_APP : mkvmerge v8.1.0 ('Psychedelic Postcard') 64bit
_STATISTICS_WRITING_DATE_UTC : 2015-09-28 07:59:11
_STATISTICS_TAGS : BPS DURATION NUMBER_OF_FRAMES NUMBER_OF_BYTES
Audio #1
ID : 2
Format : AC-3
Format/Info : Audio Coding 3
Mode extension : CM (complete main)
Format settings, Endianness : Big
Codec ID : A_AC3
Duration : 2h 15mn
Bit rate mode : Constant
Bit rate : 192 Kbps
Channel(s) : 2 channels
Channel positions : Front: L R
Sampling rate : 48.0 KHz
Bit depth : 16 bits
Compression mode : Lossy
Stream size : 186 MiB (2%)
Title : MVO
Language : Russian
Default : Yes
Forced : No
Audio #2
ID : 3
Format : AC-3
Format/Info : Audio Coding 3
Mode extension : CM (complete main)
Format settings, Endianness : Big
Codec ID : A_AC3
Duration : 2h 15mn
Bit rate mode : Constant
Bit rate : 640 Kbps
Channel(s) : 6 channels
Channel positions : Front: L C R, Side: L R, LFE
Sampling rate : 48.0 KHz
Bit depth : 16 bits
Compression mode : Lossy
Stream size : 622 MiB (7%)
Language : English
Default : No
Forced : No
Audio #3
ID : 4
Format : AAC
Format/Info : Advanced Audio Codec
Format profile : LC
Codec ID : A_AAC
Duration : 2h 15mn
Channel(s) : 2 channels
Channel positions : Front: L R
Sampling rate : 48.0 KHz
Compression mode : Lossy
Delay relative to video : 9ms
Title : Commentary
Language : English
Default : No
Forced : No
Text
ID : 5
Format : UTF-8
Codec ID : S_TEXT/UTF8
Codec ID/Info : UTF-8 Plain Text
Language : English
Default : No
Forced : No
Menu #1
00:00:00.000 : en:00:00:00.000
00:07:39.542 : en:00:07:39.542
00:25:03.043 : en:00:25:03.043
00:37:03.930 : en:00:37:03.930
00:47:30.139 : en:00:47:30.139
00:58:14.199 : en:00:58:14.199
01:05:41.688 : en:01:05:41.688
01:27:03.009 : en:01:27:03.009
01:39:23.708 : en:01:39:23.708
01:53:39.312 : en:01:53:39.312
02:05:26.728 : en:02:05:26.728
02:13:51.148 : en:02:13:51.148
Menu #2
00:00:00.054 : en:00:00:00.054

Скриншоты


_________________
Показать сообщения:    

Текущее время: Сегодня 04:17

Часовой пояс: GMT



Вы не можете начинать темы
Вы не можете отвечать на сообщения
Вы не можете редактировать свои сообщения
Вы не можете удалять свои сообщения
Вы не можете голосовать в опросах
Вы не можете прикреплять файлы к сообщениям
Вы не можете скачивать файлы