Важное объявление!
У Нас Все раздачи мультитрекерные, при нуле пиров в релизах, можете смело вставать на закачку!
 
Автор Сообщение

HUNTER

Стаж:
4 года 7 месяцев
Сообщений:
61564

Репутация: 101

[+] [-]
Вне форума [Профиль] [ЛС]

Маги: Приключения Синбада / Magi Sinbad no Bouken / マギ シンドバッドの冒険
Страна: Япония
Год выпуска: 2014 г.
Жанр: приключения, фэнтези
Тип: OVA
Продолжительность: 25 мин
Режиссер: Мияо Ёсикадзу
Студия: Lay-duce
Описание: OVA выпущенная с третьим томом манги.
Она рассказывает историю молодого Синбада, которого в будущем весь мир узнает как Владыку Семи Морей.
В свои 14 Синбад выглядит как обычный паренёк, однако все не так просто... С самого детства он имел необычные способности. Например, маленький Син мог в самый страшный шторм безошибочно указать нужный кораблю курс. Что же это за сила? И кто Синбад на самом деле?
Качество: HDTVRip
Тип релиза: Без хардсаба
Формат видео: MP4
Наличие линковки: Нет
Релиз/Автор рипа: Ohys-Raws
Видео: H264, 1280x720, 1530 kbps, 23.976 fps, 8 bit
Аудио: AAC, 202 kbps, 48000 Hz, 2 ch Язык Японский
Субтитры: ass, внешние Язык субтитров русский
Редактор/Тайм-код/Оформление: ElSwanko
Переводчик: kvaking
Не забываем "благодарить" и писать комментарии. Вам не сложно, а мне приятно.
Подробные тех. данные
GeneralComplete name : F:\anime\magi\Magi Sinbad no Bouken\[Ohys-Raws] Magi Sinbad no Bouken - 01 OVA (1024x576 x264 AAC).mp4Format : MPEG-4Format profile : Base MediaCodec ID : isomFile size : 292 MiBDuration : 23mn 29sOverall bit rate : 1 736 KbpsEncoded date : UTC 2014-06-14 08:29:05Tagged date : UTC 2014-06-14 08:29:05
VideoID : 1Format : AVCFormat/Info : Advanced Video CodecFormat profile : High@L4.1Format settings, CABAC : YesFormat settings, ReFrames : 4 framesCodec ID : avc1Codec ID/Info : Advanced Video CodingDuration : 23mn 29sBit rate : 1 530 KbpsMaximum bit rate : 15.7 MbpsWidth : 1 280 pixelsHeight : 720 pixelsDisplay aspect ratio : 16:9Frame rate mode : ConstantFrame rate : 23.976 fpsColor space : YUVChroma subsampling : 4:2:0Bit depth : 8 bitsScan type : ProgressiveBits/(Pixel*Frame) : 0.069Stream size : 257 MiB (88%)Writing library : x264 core 142 r2431+42 c69a006 tMod [8-bit@4:2:0 X86]Encoding settings : cabac=1 / ref=3 / deblock=1:1:1 / analyse=0x3:0x113 / me=hex / subme=7 / psy=1 / fade_compensate=0.00 / psy_rd=0.40:0.10 / mixed_ref=1 / me_range=16 / chroma_me=1 / trellis=1 / 8x8dct=1 / cqm=0 / deadzone=21,11 / fast_pskip=1 / chroma_qp_offset=-3 / threads=12 / lookahead_threads=2 / sliced_threads=0 / nr=0 / decimate=1 / interlaced=0 / bluray_compat=0 / constrained_intra=0 / fgo=0 / bframes=5 / b_pyramid=2 / b_adapt=1 / b_bias=0 / direct=1 / weightb=1 / open_gop=0 / weightp=2 / keyint=240 / keyint_min=1 / scenecut=40 / intra_refresh=0 / rc_lookahead=40 / rc=crf / mbtree=1 / crf=20.0000 / qcomp=0.60 / qpmin=0:0:0 / qpmax=69:69:69 / qpstep=4 / ip_ratio=1.40 / aq=1:0.60 / aq-sensitivity=10.00 / aq-factor=1.00:1.00:1.00 / aq2=0 / aq3=0Encoded date : UTC 2014-06-14 08:28:49Tagged date : UTC 2014-06-14 08:29:06Color primaries : BT.709-5, BT.1361, IEC 61966-2-4, SMPTE RP177Transfer characteristics : BT.709-5, BT.1361Matrix coefficients : BT.709-5, BT.1361, IEC 61966-2-4 709, SMPTE RP177
AudioID : 2Format : AACFormat/Info : Advanced Audio CodecFormat profile : LCCodec ID : 40Duration : 23mn 29sBit rate mode : VariableBit rate : 202 KbpsMaximum bit rate : 256 KbpsChannel(s) : 2 channelsChannel positions : Front: L RSampling rate : 48.0 KHzCompression mode : LossyStream size : 34.0 MiB (12%)Language : JapaneseEncoded date : UTC 2014-06-14 08:12:06Tagged date : UTC 2014-06-14 08:29:06
Скриншоты

_________________
Показать сообщения:    

Текущее время: Сегодня 00:59

Часовой пояс: GMT



Вы не можете начинать темы
Вы не можете отвечать на сообщения
Вы не можете редактировать свои сообщения
Вы не можете удалять свои сообщения
Вы не можете голосовать в опросах
Вы не можете прикреплять файлы к сообщениям
Вы не можете скачивать файлы
Наши партнеры: интернет магазин Ивановского трикотажа textilla.ru