Ивановский Торрент трекер
Яндекс.Погода
 

[Цитировать]
HUNTER

- Год выпуска: 2014
Страна: Япония
Жанр: комедия
Продолжительность: ТВ-сериал, 12 эп. по 24 мин.
Выпуск: c 13.01.2014 по 31.03.2014-Перевод:

  • русские субтитры от GMC (полные/вспомогательные)
    переводчик: St_Ranger, редакторы: AoZaki, Nerevar, Pat-Rica
    -Режиссер: Умэцу Ясуоми
    Студия: ARMS-Описание:
    В очередном параллельном мире магия давно стала нормой жизни, но ее носителей, называемых также «вудами», никто не освобождал от ответственности. Отношение к магии в обществе враждебное, за соблюдением правил строго следит Магический Трибунал, а раз есть судьи, то должны быть и защитники. И вот в 2018 году в известную токийскую адвокатскую фирму «Бабочка» поступает на стажировку 17-летняя Сесиль Судо, юный гений магии и юриспруденции. Народ в конторе работает опытный и тертый, прокуроры и конкуренты не раз намекали, что «бабочкам» помогает сам черт. Так оно не запрещено, если в рамках закона!
    Тем не менее, главная героиня не потерялась даже на фоне таких колоритных личностей, а первый рабочий день начала, найдя себе клиента по дороге в офис и потом выиграв дело. Правда, от новенькой и ее нестандартных методов у агентства куда больше расходов, зато жизнь интереснее. Покрутившись на темной стороне, девушка поняла, что среди магов помимо обычных преступников есть мощная сила, считающая, что высшая раса, вуды, должны править миром и «обычными людишками». В средствах члены организации не стесняются, и, самое главное, она, Сесиль, им зачем-то нужна. Ох уж эти избранники и избранницы! Хотя, конечно, лучше уж штрафы платить, а черта звать все же не стоит!
    © Hollow, World Art-Информационные ссылки: AniDB || World Art || MAL-Качество: BDRip
    Энкод: Winter - RG Pantheon
    Тип видео: без хардсаба, без линковки
    Формат: mkv
    Видео: x264 (Hi10p), 1280x720, ~4200 Kbps, 23.976 fps
    Аудио JAP: Vorbis, 48000Hz, ~256 Kbps, 2ch
    Аудио RUS 1: AC3, 48000Hz, ~192 Kbps, 2ch (внешними файлами)
    Аудио RUS 2: AC3, 48000Hz, ~192 Kbps, 2ch (внешними файлами)-

    Список озвучек в раздаче
  • двухголосая (муж./жен.) от loster01 & Emeri (LE-Production)
  • двухголосая (муж./жен.) от Lupin & Say (Anilibria)
    Список эпизодов
01. Lady Justice: Sword and Scales
02. Hard Case
03. Love and Hate
04. Personality Crisis
Скриншоты Отличия от других раздач Подробные тех. данные
Общее
Уникальный идентификатор : 230708396756010650459497055233135201470 (0xAD90D22B5003D52F8E401D26A951CCBE)
Полное имя : Z:\Anime\720p\Wizard Barristers - Benmashi Cecil [BD] [720p] - копия\[Winter] Wizard Barristers - Benmashi Cecil 01 [BDrip 1280x720 x264 Vorbis].mkv
Формат : Matroska
Версия формата : Version 2
Размер файла : 759 Мбайт
Продолжительность : 23 м.
Режим общего битрейта : Переменный
Общий поток : 4477 Кбит/сек
Дата кодирования : UTC 2014-05-21 18:19:52
Программа кодирования : mkvmerge v2.9.8 ('C'est le bon') built on Aug 13 2009 12:49:06
Библиотека кодирования : libebml v0.7.7 + libmatroska v0.8.1
Видео
Идентификатор : 1
Формат : AVC
Формат/Информация : Advanced Video Codec
Профиль формата : High 10@L4.1
Параметр CABAC формата : Да
Параметр ReFrames формата : 9 кадров
Идентификатор кодека : V_MPEG4/ISO/AVC
Продолжительность : 23 м.
Битрейт : 4132 Кбит/сек
Ширина : 1280 пикселей
Высота : 720 пикселей
Соотношение сторон : 16:9
Режим частоты кадров : Постоянный
Частота кадров : 23,976 кадра/сек
Цветовое пространство : YUV
Субдискретизация насыщенности : 4:2:0
Битовая глубина : 10 бит
Тип развёртки : Прогрессивная
Бит/(Пиксели*Кадры) : 0.187
Размер потока : 701 Мбайт (92%)
Библиотека кодирования : x264 core 132 r2309 3b1f1f7
Настройки программы : cabac=1 / ref=9 / deblock=1:-2:-2 / analyse=0x3:0x133 / me=umh / subme=9 / psy=1 / psy_rd=0.90:0.00 / mixed_ref=1 / me_range=24 / chroma_me=1 / trellis=2 / 8x8dct=1 / cqm=0 / deadzone=21,11 / fast_pskip=1 / chroma_qp_offset=-2 / threads=12 / lookahead_threads=2 / sliced_threads=0 / nr=0 / decimate=0 / interlaced=0 / bluray_compat=0 / constrained_intra=0 / bframes=8 / b_pyramid=2 / b_adapt=2 / b_bias=0 / direct=1 / weightb=1 / open_gop=0 / weightp=2 / keyint=250 / keyint_min=23 / scenecut=40 / intra_refresh=0 / rc=crf / mbtree=0 / crf=15.8 / qcomp=0.70 / qpmin=9 / qpmax=40 / qpstep=4 / ip_ratio=1.40 / pb_ratio=1.30 / aq=1:0.90
Default : Нет
Forced : Нет
Аудио
Идентификатор : 2
Формат : Vorbis
Параметр Floor формата : 1
Идентификатор кодека : A_VORBIS
Продолжительность : 23 м.
Вид битрейта : Переменный
Битрейт : 256 Кбит/сек
Каналы : 2 канала
Частота : 48,0 КГц
Метод сжатия : С потерями
Размер потока : 43,4 Мбайт (6%)
Библиотека кодирования : libVorbis (Schaufenugget) (20101101 (Schaufenugget))
Язык : Japanese
Default : Да
Forced : Нет
- -Информация о релизе
  • Выбор видео, перевода, озвучки, а также типа сборки материала осуществляется релизером и не подлежит обсуждению. Если вы считаете, что раздаваемый материал противоречит правилам раздела "Аниме" rutracker.org, сообщите об этом одному из модераторов раздела.
  • В случае появления нового материала или же лучшего по качеству материала релизер оставляет за собой право обновить раздачу. В этом случае вам необходимо ознакомиться с изменениями (добавлениями) и перекачать торрент.
  • Данный релиз предназначен для просмотра на ПК. Воспроизведение на иных проигрывателях не гарантируется. Для просмотра рекомендуется Media Player Classic с установленным пакетом кодеков K-Lite.
  • Данный релиз содержит 10-битное видео (Hi10p). Для корректного воспроизведения обязательно используйте кодеки, поддерживающие 10-битное видео.
    Обсудить частные случаи проблем с воспроизведением и получить дополнительную информацию можно здесь.

  • Данный релиз предназначен для просмотра с внешними субтитрами и внешними звуковыми дорожками.
  • Для просмотра с внешней звуковой дорожкой нужно:
    перекинуть файлы .mka из папки "RUS Sound [<автор(ы) озвучки>]" в одну папку с видео и переключить звуковую дорожку в плеере при просмотре. Как это сделать в разных плеерах подробно описано здесь.

  • Для просмотра с субтитрами нужно:
    перекинуть файлы .ass из папки "RUS Subtitles [<автор(ы) перевода>]" в одну папку с видео - плеер подгрузит их автоматически при открытии видео.

  • Если у вас возникли проблемы с просмотром, не связанные с описанным выше, сообщите о них автору раздачи посредством сообщения в теме или ЛС Aglenn.
Показать сообщения:    

Текущее время: 25-Сен 16:00

Часовой пояс: UTC - 1


Вы не можете начинать темы
Вы не можете отвечать на сообщения
Вы не можете редактировать свои сообщения
Вы не можете удалять свои сообщения
Вы не можете голосовать в опросах
Вы не можете прикреплять файлы к сообщениям
Вы не можете скачивать файлы

!ВНИМАНИЕ!
Сайт не предоставляет электронные версии произведений, а занимается лишь коллекционированием и каталогизацией ссылок, присылаемых и публикуемых на форуме нашими читателями. Если вы являетесь правообладателем какого-либо представленного материала и не желаете, чтобы ссылка на него находилась в нашем каталоге, свяжитесь с нами, и мы незамедлительно удалим ее. Файлы для обмена на трекере предоставлены пользователями сайта, и администрация не несет ответственности за их содержание. Просьба не заливать файлы, защищенные авторскими правами, а также файлы нелегального содержания!