Люди там / Cilveki tur (Айк Карапетян) [2012, драма, криминал, SATRip] :: Ивановский Торрент трекер
Важное объявление!
У Нас Все раздачи мультитрекерные, при нуле пиров в релизах, можете смело вставать на закачку!
Статистика раздачи
Размер:     |    Зарегистрирован:     |    Скачан:     |   
Нет
 
     
 
 
Автор Сообщение

HUNTER

Стаж:
4 года 11 месяцев
Сообщений:
66116

Репутация: 101

[+] [-]
Вне форума [Профиль] [ЛС]

Люди там / Cilveki tur-
Год выпуска: 2012
Страна: Латвия
Жанр: драма, криминал
Продолжительность: 01:26:45
Перевод: Одноголосый закадровый
Субтитры: латышские (неотключаемые)-Режиссер: Айк Карапетян
Сценарий: Айк Карапетян
Продюсер: Роберт Виновскис, Guntars Laucis
Оператор: Янис Эглитис
Художник: Henrijs Deicmanis
Монтаж: Тамбет Тасуя-В ролях: Илья Щербаков / Ilya Scherbakov (Yan), Agnese Frisfelde , Андрис Гросс (Andris), Виктория Кондратенко / Viktoria Kondratenko (Sabina), Mareks Marcinkevics (Shokolad), Михаил Разумовский (Albert), Семен Серзин (Kreker), Эдуард Мурашов (дедушка Виктор)
-Описание: Ян, парень лет двадцати с небольшим, вместе со своим другом Крекером из угрюмого микрорайона ведет полукриминальную жизнь. Потом он знакомится с красавицей Сабиной, девушкой из обеспеченных слоев, хочет начать новую жизнь, но ее круг не принимает Яна. Его надежды на любовь и новые возможности разрушены еще более жестокими правилами жизни «золотой молодежи», и рассчитывать он может только на себя.-Рейтинг: -Качество: SATRip
Формат: AVI
Видео кодек: XviD
Аудио кодеk: MP3
Видео: 688x320 (2.15:1), 25 fps, XviD MPEG-4 ~2263 kbps avg, 0.41 bit/pixel
Аудио: Russian: 48 kHz, MPEG Layer 3, 2 ch, ~128.00 kbps avg
-

МедиаИнфо

Код: copyText_writeLink('this.parentNode.parentNode.nextSibling.nextSibling'); General
Complete name : Ljudi.tam.1.45.avi
Format : AVI
Format/Info : Audio Video Interleave
File size : 1.46 GiB
Duration : 1h 26mn
Overall bit rate : 2 401 Kbps
Writing library : VirtualDub-MPEG2 build 24600/release
Video
ID : 0
Format : MPEG-4 Visual
Format profile : Advanced Simple@L5
Format settings, BVOP : Yes
Format settings, QPel : No
Format settings, GMC : No warppoints
Format settings, Matrix : Default (H.263)
Muxing mode : Packed bitstream
Codec ID : XVID
Codec ID/Hint : XviD
Duration : 1h 26mn
Bit rate : 2 263 Kbps
Width : 688 pixels
Height : 320 pixels
Display aspect ratio : 2.2:1
Frame rate : 25.000 fps
Color space : YUV
Chroma subsampling : 4:2:0
Bit depth : 8 bits
Scan type : Progressive
Bits/(Pixel*Frame) : 0.411
Stream size : 1.37 GiB (94%)
Writing library : XviD 1.2.1 (UTC 2008-12-04)
Audio
ID : 1
Format : MPEG Audio
Format version : Version 1
Format profile : Layer 3
Mode : Joint stereo
Mode extension : MS Stereo
Codec ID : 55
Codec ID/Hint : MP3
Duration : 1h 26mn
Bit rate mode : Constant
Bit rate : 128 Kbps
Channel(s) : 2 channels
Sampling rate : 48.0 KHz
Stream size : 79.4 MiB (5%)
Alignment : Split accross interleaves
Interleave, duration : 40 ms (1.00 video frame)
Interleave, preload duration : 500 ms
-
- -

_________________
Показать сообщения:    

Текущее время: Сегодня 09:12

Часовой пояс: GMT



Вы не можете начинать темы
Вы не можете отвечать на сообщения
Вы не можете редактировать свои сообщения
Вы не можете удалять свои сообщения
Вы не можете голосовать в опросах
Вы не можете прикреплять файлы к сообщениям
Вы не можете скачивать файлы