Важное объявление!
У Нас Все раздачи мультитрекерные, при нуле пиров в релизах, можете смело вставать на закачку!
Статистика раздачи
Размер:     |    Зарегистрирован:     |    Скачан:     |   
Нет
 
     
 
 
Автор Сообщение

HUNTER

Стаж:
5 лет
Сообщений:
68018

Репутация: 101

[+] [-]
Вне форума [Профиль] [ЛС]

Люди Икс 2 / X2
Страна: Канада, США
Жанр: фантастика, боевик, приключения, комикс
Год выпуска: 2003
Продолжительность: 02:01:51
Перевод: Профессиональный (дублированный)
Cубтитры: нет
Оригинальная аудиодорожка: нет
Режиссер: Брайан Сингер / Bryan Singer
В ролях: Патрик Стюарт (Professor Charles Xavier), Хью Джекман (Logan / Wolverine), Иэн МакКеллен (Eric Lensherr / Magneto), Холли Берри (Ororo Munroe / Storm), Фамке Янссен (Jean Grey), Джеймс Марсден (Scott Summers / Cyclops), Анна Пэкуин (Marie / Rogue), Ребекка Ромин (Raven Darkholme / Mystique), Брайан Кокс (William Stryker), Алан Камминг (Kurt Wagner / Nightcrawler), Брюс Дэвисон (Senator Kelly), Аарон Стэнфорд (John Allerdyce / Pyro)
Описание: Мутанты продолжают борьбу против общества, которое страшит их, и которому они не доверяют. Их положение становится еще более отчаянным, когда они подвергаются мощной атаке неизвестного противника, обладающего экстраординарными способностями.
Внезапное нападение снова становится причиной политического и общественного резонанса по поводу введения повсеместной регистрации мутантов и причиной образования движения против мутантов, возглавляемого Уильямом Страйкером, бывшим военным, который, по слухам, проводил опыты над мутантами.
Работа Страйкера была каким-то образом связана с таинственным прошлым Логана, которое он не помнит. Как только Росомаха начинает пытаться разгадать свое прошлое, Страйкер активирует свою программу, направленную против мутантов, т. е. организует штурм на дом профессора Ксавье.
Сбежавший из пластиковой тюрьмы Магнето предлагает Людям Икс объединиться и сражаться вместе против их общего устрашающего врага Страйкера. На этот раз Люди ИКС сталкиваются с самой серьезной задачей, которая когда-либо стояла перед ними: сейчас в их руках судьбы не только всех мутантов, но и всего человечества.
Доп. информация: HDTV имеет иное наполнение кадра, чем BD http://screenshotcomparison.com/comparison/113176
Сэмпл: http://multi-up.com/1031066
Тип релиза: HDTV 1080i
Контейнер: TS
Видео: AVC, 1920x1080 (16/9), 25.000 fps, 11.1 Mbps (0.214 bit/pixel)
Аудио: MP2, 48.0 KHz, 2 ch, 192 Kbps, CBR (Russian)

MediaInfo

Общее
Идентификатор : 3 (0x3)
Полное имя : K:\Люди Икс 2.ts
Формат : MPEG-TS
Размер файла : 10,3 Гбайт
Продолжительность : 2 ч. 1 м.
Режим общего битрейта : Переменный
Общий поток : 12,1 Мбит/сек
Видео
Идентификатор : 2141 (0x85D)
Идентификатор меню : 21004 (0x520C)
Формат : AVC
Формат/Информация : Advanced Video Codec
Профиль формата : Main@L4.0
Параметр CABAC формата : Да
Параметр ReFrames формата : 3 кадра
Идентификатор кодека : 27
Продолжительность : 2 ч. 1 м.
Битрейт : 11,3 Мбит/сек
Ширина : 1920 пикселей
Высота : 1080 пикселей
Соотношение сторон : 16:9
Частота кадров : 25,000 кадров/сек
Стандарт вещания : Component
Цветовое пространство : YUV
Субдискретизация насыщенности : 4:2:0
Битовая глубина : 8 бит
Тип развёртки : Чересстрочная
Порядок развёртки : Верхнее поле первое
Бит/(Пиксели*Кадры) : 0.219
Размер потока : 9,65 Гбайт (93%)
Основные цвета : BT.709
Характеристики трансфера : BT.709
Коэффициенты матрицы : BT.709
Аудио
Идентификатор : 2142 (0x85E)
Идентификатор меню : 21004 (0x520C)
Формат : MPEG Audio
Версия формата : Version 1
Профиль формата : Layer 2
Идентификатор кодека : 4
Продолжительность : 2 ч. 1 м.
Вид битрейта : Постоянный
Битрейт : 192 Кбит/сек
Каналы : 2 канала
Частота : 48,0 КГц
Метод сжатия : С потерями
Задержка видео : -6 мс.
Размер потока : 167 Мбайт (2%)
Язык : Russian

Скриншоты

Сравнение

BD...................................HDTV



_________________
Показать сообщения:    

Текущее время: Сегодня 10:47

Часовой пояс: GMT



Вы не можете начинать темы
Вы не можете отвечать на сообщения
Вы не можете редактировать свои сообщения
Вы не можете удалять свои сообщения
Вы не можете голосовать в опросах
Вы не можете прикреплять файлы к сообщениям
Вы не можете скачивать файлы