Важное объявление!
У Нас Все раздачи мультитрекерные, при нуле пиров в релизах, можете смело вставать на закачку!
Статистика раздачи
Размер:     |    Зарегистрирован:     |    Скачан:     |   
Нет
 
     
 
 
Автор Сообщение

HUNTER

Стаж:
5 лет
Сообщений:
67968

Репутация: 101

[+] [-]
Вне форума [Профиль] [ЛС]

Люди Икс: Начало. Росомаха / X-Men Origins: Wolverine
Страна: США
Жанр: фантастика, боевик, триллер, приключения
Год выпуска: 2009
Продолжительность: 01:38:21
Перевод: Профессиональный (дублированный)
Cубтитры: нет
Оригинальная аудиодорожка: нет
Режиссер: Гэвин Худ / Gavin Hood
В ролях: Хью Джекман, Лив Шрайбер, Дэнни Хьюстон, Уилл Ай Эм, Линн Коллинз, Кевин Дюран, Доминик Монаган, Тейлор Китч, Дэниэл Хенни, Райан Рейнольдс, Тим Пакок, Джулия Блейк, Макс Каллен, Трой Сиван, Майкл-Джеймс Олсен, Питер О’Брайэн, Аарон Джеффри, Элис Паркинсон, Филип Паттерсон, Энтони Ги, Эделейд Клеменс, Карл Битти, Том О’Салливан, Майлс Поллард, Стефен Андертон, Крис Садринна, Септимус Катон, Мэттью Дэйл, Натин Батлер, Питер Бэрри, Дэвид Ричи, Ашер Кедди, Сократис
Описание: Фильм рассказывает о неистовом и романтичном прошлом Росомахи, его сложных отношениях с Виктором Кридом и о зловещей программе Оружие Х. При этом Росомаха встречается со многими мутантами, уже знакомыми и новыми, и узнает несколько легенд о мире Людей Икс.
Доп. информация: HDTV имеет иное наполнение кадра, чем BD:

Сравнение с BD

BD.................................HDTV


Сэмпл: https://yadi.sk/i/jKq5ckxVepFiG
Тип релиза: HDTV 1080i
Контейнер: TS
Видео: AVC, 1920x1080 (16/9), 25.000 fps, 11.9 Mbps (0.230 bit/pixel)
Аудио: MP2, 48.0 KHz, 2 ch, 192 Kbps, CBR (Russian)

MediaInfo

Общее
Идентификатор : 3 (0x3)
Полное имя : K:\Люди Икс - Начало. Росомаха.ts
Формат : MPEG-TS
Размер файла : 8,94 Гбайт
Продолжительность : 1 ч. 38 м.
Режим общего битрейта : Переменный
Общий поток : 13,0 Мбит/сек
Видео
Идентификатор : 2141 (0x85D)
Идентификатор меню : 21004 (0x520C)
Формат : AVC
Формат/Информация : Advanced Video Codec
Профиль формата : Main@L4.0
Параметр CABAC формата : Да
Параметр ReFrames формата : 3 кадра
Идентификатор кодека : 27
Продолжительность : 1 ч. 38 м.
Битрейт : 12,2 Мбит/сек
Ширина : 1920 пикселей
Высота : 1080 пикселей
Соотношение сторон : 16:9
Частота кадров : 25,000 кадров/сек
Стандарт вещания : Component
Цветовое пространство : YUV
Субдискретизация насыщенности : 4:2:0
Битовая глубина : 8 бит
Тип развёртки : Чересстрочная
Порядок развёртки : Верхнее поле первое
Бит/(Пиксели*Кадры) : 0.235
Размер потока : 8,37 Гбайт (94%)
Основные цвета : BT.709
Характеристики трансфера : BT.709
Коэффициенты матрицы : BT.709
Аудио
Идентификатор : 2142 (0x85E)
Идентификатор меню : 21004 (0x520C)
Формат : MPEG Audio
Версия формата : Version 1
Профиль формата : Layer 2
Идентификатор кодека : 4
Продолжительность : 1 ч. 38 м.
Вид битрейта : Постоянный
Битрейт : 192 Кбит/сек
Каналы : 2 канала
Частота : 48,0 КГц
Метод сжатия : С потерями
Задержка видео : -23 мс.
Размер потока : 135 Мбайт (1%)
Язык : Russian

Скриншоты


_________________
Показать сообщения:    

Текущее время: Сегодня 12:48

Часовой пояс: GMT



Вы не можете начинать темы
Вы не можете отвечать на сообщения
Вы не можете редактировать свои сообщения
Вы не можете удалять свои сообщения
Вы не можете голосовать в опросах
Вы не можете прикреплять файлы к сообщениям
Вы не можете скачивать файлы