Важное объявление!
У Нас Все раздачи мультитрекерные, при нуле пиров в релизах, можете смело вставать на закачку!
Статистика раздачи
Размер:     |    Зарегистрирован:     |    Скачан:     |   
Нет
 
     
 
 
Автор Сообщение

HUNTER

Стаж:
5 лет
Сообщений:
68401

Репутация: 101

[+] [-]
Вне форума [Профиль] [ЛС]

Люди, забытые временем / Люди, которых забыло время / Капрона-Парк / The people that time forgot
Страна: Великобритания
Студия: American International Pictures (AIP), Amicus Productions
Жанр: приключения, фантастика
Год выпуска: 1977
Продолжительность: 01:27:05
Перевод: Профессиональный (двухголосый закадровый) НТВ+
Cубтитры: нет
Оригинальная аудиодорожка: нет
Режиссер: Кевин Коннор / Kevin Connor
В ролях: Патрик Уэйн, Даг МакКлюр, Сара Даглас, Дана Гиллеспи, Торли Уолтерс, Шэйн Риммер, Тони Бриттон, Джон Хэллам, Дэвид Праус, Милтон Рейд
Описание: Экранизация повести Эдгара Райса Берроуза, являющаяся продолжением фильма Земля, забытая временем. В конце 1917г. у берегов Шотландии находят небольшой контейнер, внутри которого оказались листы бумаги с посланием от некоего Боуэна Тайлера. Во время Первой мировой войны, он, вместе со своими товарищами, попал на затерянный в Океане остров, окруженный скалами и ледниками. Оказалось, что на острове живут динозавры, первобытные люди и прочие птеродактили. В конце концов, все спутники Тайлера погибают, кроме Лизы Клейтон... Тайлер, изложив свою историю на бумаге и запечатав в армейский термос, бросает его в Океан, в надежде, что его сообщение когда-нибудь увидят люди... И люди увидели это сообщение... На поиски Тайлера отправляется спасательная экспедиция, организованная его другом майором Беном МакБрайдом и профессором Норфолком...
II Сэмпл II IMDB II
Тип релиза: HDTV 1080i
Контейнер: TS
Видео: AVC / 1920x1080 / 16:9 / 25.0fps / Bit rate 6944Kbps
Аудио: MP2 / 48.0KHz / 2ch. / 192kbps / rus / dvo / НТВ+

MediaInfo

Общее
Идентификатор : 1 (0x1)
Полное имя : H:\!_Torrent\The.people.that.time.forgot.1977.HDTV1080i.ts
Формат : MPEG-TS
Размер файла : 4,57 Гбайт
Продолжительность : 1 ч. 27 м.
Режим общего битрейта : Переменный
Общий поток : 7509 Кбит/сек
Максимальный общий битрейт : 35,5 Мбит/сек
Видео
Идентификатор : 4113 (0x1011)
Идентификатор меню : 1 (0x1)
Формат : AVC
Формат/Информация : Advanced Video Codec
Профиль формата : High@L4
Параметр CABAC формата : Да
Параметр ReFrames формата : 3 кадра
Параметр GOP формата : M=4, N=32
Идентификатор кодека : 27
Продолжительность : 1 ч. 27 м.
Вид битрейта : Переменный
Битрейт : 6944 Кбит/сек
Максимальный битрейт : 40,0 Мбит/сек
Ширина : 1920 пикселей
Высота : 1080 пикселей
Соотношение сторон : 16:9
Частота кадров : 25,000 кадров/сек
Стандарт вещания : Component
Цветовое пространство : YUV
Субдискретизация насыщенности : 4:2:0
Битовая глубина : 8 бит
Тип развёртки : Чересстрочная
Порядок развёртки : Верхнее поле первое
Бит/(Пиксели*Кадры) : 0.134
Размер потока : 4,22 Гбайт (92%)
Цветовой диапазон : Limited
Основные цвета : BT.709
Характеристики трансфера : BT.709
Коэффициенты матрицы : BT.709
Аудио
Идентификатор : 4352 (0x1100)
Идентификатор меню : 1 (0x1)
Формат : MPEG Audio
Версия формата : Version 1
Профиль формата : Layer 2
Идентификатор кодека : 4
Продолжительность : 1 ч. 27 м.
Вид битрейта : Постоянный
Битрейт : 192 Кбит/сек
Каналы : 2 канала
Частота : 48,0 КГц
Метод сжатия : С потерями
Размер потока : 120 Мбайт (3%)

Скриншоты

Скрины:


_________________
Показать сообщения:    

Текущее время: Сегодня 13:51

Часовой пояс: GMT



Вы не можете начинать темы
Вы не можете отвечать на сообщения
Вы не можете редактировать свои сообщения
Вы не можете удалять свои сообщения
Вы не можете голосовать в опросах
Вы не можете прикреплять файлы к сообщениям
Вы не можете скачивать файлы