Ивановский Торрент трекер
Яндекс.Погода
 

[Цитировать]
HUNTER

Любопытный Джордж : Curious George«Вперед навстречу приключениям с самой забавной обезьянкой!» Год выпуска: 2006
Страна: США
Жанр: мультфильм, комедия, приключения, семейный
Продолжительность: 01:27:19
Перевод:
Профессиональный (Дублированный) - Пифагор
Профессиональный (Дублированный) - Дисней
Профессиональный (Двухголосый закадровый)
русские субтитры: есть-Режиссёр: Мэттью О’Каллаган : Matthew O'Callaghan-Роли озвучивали: Фрэнк Уэлкер, Уилл Феррелл, Шэйн Баумель, Тамара Джо Битти, Юджин Леви, Кристофер Чен, Джесси Флауер, Дик Ван Дайк, Александр Гоулд, Терренс Харди мл.
Роли дублировали: Александр Комлев, Александр Груздев, Пётр Иващенко, Олег Форостенко, Элиза Мартиросова-Описание: Приключения Любопытного Джорджа, любознательной маленькой обезьянки с ненасытным голодом к приключениям. Природные мужественность и любовь к забавам приводит его к новым друзьям, но также и вовлекает в ряд не совсем хороших приключений…- релиз: -- Большое спасибо xfiles и Lexa1988-L1 за Дубляж от Дисней;
- Работа с BDRemux'ом и звуком -Azureus--Качество: BDRemux 1080p
Формат: MKV
Видео кодек: AVC
Аудио кодек: AC3 : DTS MA
Видео: 1920x1080 , 23,976 fps, ~33,5 Мbps avg, 0.674 bit/pixel
Аудио #1: [RUS] 48 kHz, AC3 Dolby Digital, 3/2 (L,C,R,l,r) + LFE ch, ~384 kbps - DUB /Пифагор/
Аудио #2: [RUS] 48 kHz, AC3 Dolby Digital, 2/0 (L,R) ch, ~192 kbps kbps avg - DUB /Дисней/
Аудио #3: [RUS] 48 kHz, AC3 Dolby Digital, 3/2 (L,C,R,l,r) + LFE ch, ~448 kbps - DVO
Аудио #4: [ENG] DTS-HD MA 5.1 / 48 kHz / 2247 kbps / 16-bit (DTS Core: 5.1 / 48 kHz / 1509 kbps / 16-bit)
субтитры: русские - forced, английские - SDH
навигация по главам: 20 глав (не именных)

MediaInfo

Общее
Уникальный идентификатор : 249007346300919469993635962370976577272 (0xBB551209C1067504AF8C21A2A996F6F8)
Полное имя : D:\Im\Любопытный Джордж\Curious George.2006.BDRemux 1080p.mkv
Формат : Matroska
Версия формата : Version 4 / Version 2
Размер файла : 22,5 Гбайт
Продолжительность : 1 ч. 27 м.
Режим общего битрейта : Переменный
Общий поток : 36,8 Мбит/сек
Название фильма : Curious George.2006.BDRemux 1080p -Azureus-
Дата кодирования : UTC 2015-03-05 18:20:08
Программа кодирования : mkvmerge v7.5.0 ('Glass Culture') 32bit built on Jan 4 2015 16:37:25
Библиотека кодирования : libebml v1.3.1 + libmatroska v1.4.2
DURATION : 01:16:58.620000000
NUMBER_OF_FRAMES : 1298
NUMBER_OF_BYTES : 44754
_STATISTICS_WRITING_APP : mkvmerge v7.5.0 ('Glass Culture') 32bit built on Jan 4 2015 16:37:25
_STATISTICS_WRITING_DATE_UTC : 2015-03-05 18:20:08
_STATISTICS_TAGS : BPS DURATION NUMBER_OF_FRAMES NUMBER_OF_BYTES
Видео
Идентификатор : 1
Формат : AVC
Формат/Информация : Advanced Video Codec
Профиль формата : High@L4.1
Параметр CABAC формата : Да
Параметр ReFrames формата : 4 кадра
Параметр GOP формата : M=3, N=12
Идентификатор кодека : V_MPEG4/ISO/AVC
Продолжительность : 1 ч. 27 м.
Вид битрейта : Переменный
Битрейт : 33,5 Мбит/сек
Максимальный битрейт : 35,0 Мбит/сек
Ширина : 1920 пикселей
Высота : 1080 пикселей
Соотношение сторон : 16:9
Частота кадров : 23,976 кадра/сек
Цветовое пространство : YUV
Субдискретизация насыщенности : 4:2:0
Битовая глубина : 8 бит
Тип развёртки : Прогрессивная
Бит/(Пиксели*Кадры) : 0.674
Размер потока : 20,4 Гбайт (91%)
Default : Да
Forced : Нет
Аудио #1
Идентификатор : 2
Формат : AC-3
Формат/Информация : Audio Coding 3
Расширение режима : CM (complete main)
Идентификатор кодека : A_AC3
Продолжительность : 1 ч. 27 м.
Вид битрейта : Постоянный
Битрейт : 384 Кбит/сек
Каналы : 6 каналов
Расположение каналов : Front: L C R, Side: L R, LFE
Частота : 48,0 КГц
Битовая глубина : 16 бит
Метод сжатия : С потерями
Размер потока : 240 Мбайт (1%)
Заголовок : DUB - Пифагор
Язык : Russian
Default : Да
Forced : Нет
Аудио #2
Идентификатор : 3
Формат : AC-3
Формат/Информация : Audio Coding 3
Расширение режима : CM (complete main)
Идентификатор кодека : A_AC3
Продолжительность : 1 ч. 27 м.
Вид битрейта : Постоянный
Битрейт : 192 Кбит/сек
Каналы : 2 канала
Расположение каналов : Front: L R
Частота : 48,0 КГц
Битовая глубина : 16 бит
Метод сжатия : С потерями
Размер потока : 120 Мбайт (1%)
Заголовок : DUB - Disney
Язык : Russian
Default : Нет
Forced : Нет
Аудио #3
Идентификатор : 4
Формат : AC-3
Формат/Информация : Audio Coding 3
Расширение режима : CM (complete main)
Идентификатор кодека : A_AC3
Продолжительность : 1 ч. 27 м.
Вид битрейта : Постоянный
Битрейт : 448 Кбит/сек
Каналы : 6 каналов
Расположение каналов : Front: L C R, Side: L R, LFE
Частота : 48,0 КГц
Битовая глубина : 16 бит
Метод сжатия : С потерями
Размер потока : 280 Мбайт (1%)
Заголовок : DVO
Язык : Russian
Default : Нет
Forced : Нет
Аудио #4
Идентификатор : 5
Формат : DTS
Формат/Информация : Digital Theater Systems
Профиль формата : MA / Core
Идентификатор кодека : A_DTS
Продолжительность : 1 ч. 27 м.
Вид битрейта : Переменный
Битрейт : 1561 Кбит/сек / 1510 Кбит/сек
Каналы : 6 каналов
Расположение каналов : Front: L C R, Side: L R, LFE
Частота : 48,0 КГц
Битовая глубина : 24 бит
Метод сжатия : Без потерь / Lossy
Заголовок : ENG
Язык : English
Default : Нет
Forced : Нет
Текст #1
Идентификатор : 6
Формат : UTF-8
Идентификатор кодека : S_TEXT/UTF8
Идентификатор кодека/Информация : UTF-8 Plain Text
Заголовок : Rus Sub - forced
Язык : Russian
Default : Нет
Forced : Нет
Текст #2
Идентификатор : 7
Формат : UTF-8
Идентификатор кодека : S_TEXT/UTF8
Идентификатор кодека/Информация : UTF-8 Plain Text
Заголовок : Eng Sub - SDH
Язык : English
Default : Нет
Forced : Нет
Меню
00:00:00.000 : en:00:00:00.000
00:04:02.701 : en:00:04:02.701
00:06:23.925 : en:00:06:23.925
00:11:38.323 : en:00:11:38.323
00:15:14.872 : en:00:15:14.872
00:18:27.231 : en:00:18:27.231
00:21:21.322 : en:00:21:21.322
00:25:11.635 : en:00:25:11.635
00:30:11.393 : en:00:30:11.393
00:35:00.765 : en:00:35:00.765
00:40:41.397 : en:00:40:41.397
00:46:10.393 : en:00:46:10.393
00:51:26.875 : en:00:51:26.875
00:56:25.674 : en:00:56:25.674
00:59:00.829 : en:00:59:00.829
01:04:51.638 : en:01:04:51.638
01:08:38.323 : en:01:08:38.323
01:12:33.683 : en:01:12:33.683
01:14:21.624 : en:01:14:21.624
01:18:00.217 : en:01:18:00.217
____________________________________________
Стою на раздаче до 5 дней.
Просьба скачавшим как можно дольше не покидать раздачу!
ВСЕМ ПРИЯТНОГО ПРОСМОТРА!_________________________________________


Показать сообщения:    

Текущее время: 13-Дек 17:11

Часовой пояс: UTC ± 0


Вы не можете начинать темы
Вы не можете отвечать на сообщения
Вы не можете редактировать свои сообщения
Вы не можете удалять свои сообщения
Вы не можете голосовать в опросах
Вы не можете прикреплять файлы к сообщениям
Вы не можете скачивать файлы

!ВНИМАНИЕ!
Сайт не предоставляет электронные версии произведений, а занимается лишь коллекционированием и каталогизацией ссылок, присылаемых и публикуемых на форуме нашими читателями. Если вы являетесь правообладателем какого-либо представленного материала и не желаете, чтобы ссылка на него находилась в нашем каталоге, свяжитесь с нами, и мы незамедлительно удалим ее. Файлы для обмена на трекере предоставлены пользователями сайта, и администрация не несет ответственности за их содержание. Просьба не заливать файлы, защищенные авторскими правами, а также файлы нелегального содержания!