Ивановский Торрент трекер
Яндекс.Погода
 

[Цитировать]
HUNTER

- - -Год выпуска: 2012
Страна: Россия
Выпущено: ООО "Продюсерский центр ПРО100 ФИЛЬМ"
Жанр: мелодрама, детектив
Продолжительность: 00:49:27
Кол-во серий: 8 серий
Перевод: Оригинал -Режиссер: Александр Кириенко
Сценарий: Юлия Лукшина
Продюсер: Анастасия Шипулина, Родион Павлючик-В ролях: Елена Яковлева (Варвара Ивановна Слуцкая), Виталий Хаев , Андрей Кузичев , Даша Волга , Петр Баранчеев , Рамиля Искандер , Алексей Юрченко , Софья Лукьянова , Ирина Таранник , Олег Алмазов
-
Главная героиня истории — Варвара Ивановна Слуцкая. Бывшая учительница, ныне пенсионерка. Обожает читать детективы Агаты Кристи и всюду совать свой нос. Варвара Ивановна переезжает в квартиру к своему сыну Роману и его жене Алёне помогать с воспитанием внуков Гоши и Лизы. Поначалу отношения Варвары Ивановны с невесткой складываются не очень гладко: две хозяйки «на одной кухне» всегда сложно уживаются. К тому же у Варвары Ивановны свои взгляды и методы воспитания внуков. Алена считает их слишком мягкими. Однажды Варвара Ивановна возвращалась домой и обнаружила в лифте труп соседки. Дело ведет следователь ОВД, сосед и друг четы Слуцких — Иван Болотников. Естественно, непоседа Варвара Ивановна начинает свое расследование. В этом ей помогает еще один сосед — пенсионер и бывший преподаватель в Академии Контрразведки — Вязьмин. Безудержная энергия, врожденная любопытность вкупе с деликатностью пожилого учителя, и, конечно, доскональное знание детективного жанра позволяет Варваре Ивановне смотреть на преступление немного под другим углом, нежели следователи…-Премьера (РФ): 24 декабря 2012
Релиз на DVD: 29 января 2013, «Lizard Cinema Trade»-Качество: SATRip
Формат: AVI
Видео кодек: DivX 5
Аудио кодек: MP3
Видео: 704x400 (16:9), 25.000 fps, DivX 5, 1 501 Kbps
Аудио: Аудио #1: MP3, 192 Kbps, 48.0 KHz, 2 ch
-

МедиаИнфо

Код: copyText_writeLink('this.parentNode.parentNode.nextSibling.nextSibling'); General
Complete name : Lyubopitnaya.Varvara.01.SATRip.avi
Format : AVI
Format/Info : Audio Video Interleave
File size : 602 MiB
Duration : 49mn 27s
Overall bit rate : 1 703 Kbps
Writing application : VirtualDubModRus 1.5.10.1 (build 2439/release)
Writing library : VirtualDubMod build 2439/release
Video
ID : 0
Format : MPEG-4 Visual
Format settings, BVOP : Yes
Format settings, QPel : No
Format settings, GMC : No warppoints
Format settings, Matrix : Default (H.263)
Muxing mode : Packed bitstream
Codec ID : DX50
Codec ID/Hint : DivX 5
Duration : 49mn 27s
Bit rate : 1 501 Kbps
Width : 704 pixels
Height : 400 pixels
Display aspect ratio : 16:9
Frame rate : 25.000 fps
Color space : YUV
Chroma subsampling : 4:2:0
Bit depth : 8 bits
Scan type : Progressive
Bits/(Pixel*Frame) : 0.213
Stream size : 531 MiB (88%)
Writing library : DivX 6.8.5 (UTC 2009-08-20)
Audio
ID : 1
Format : MPEG Audio
Format version : Version 1
Format profile : Layer 3
Mode : Joint stereo
Codec ID : 55
Codec ID/Hint : MP3
Duration : 49mn 27s
Bit rate mode : Constant
Bit rate : 192 Kbps
Channel(s) : 2 channels
Sampling rate : 48.0 KHz
Stream size : 67.9 MiB (11%)
Alignment : Split accross interleaves
Interleave, duration : 40 ms (1.00 video frame)
Interleave, preload duration : 500 ms
- - -- -
Показать сообщения:    

Текущее время: 22-Окт 05:41

Часовой пояс: UTC - 1


Вы не можете начинать темы
Вы не можете отвечать на сообщения
Вы не можете редактировать свои сообщения
Вы не можете удалять свои сообщения
Вы не можете голосовать в опросах
Вы не можете прикреплять файлы к сообщениям
Вы не можете скачивать файлы

!ВНИМАНИЕ!
Сайт не предоставляет электронные версии произведений, а занимается лишь коллекционированием и каталогизацией ссылок, присылаемых и публикуемых на форуме нашими читателями. Если вы являетесь правообладателем какого-либо представленного материала и не желаете, чтобы ссылка на него находилась в нашем каталоге, свяжитесь с нами, и мы незамедлительно удалим ее. Файлы для обмена на трекере предоставлены пользователями сайта, и администрация не несет ответственности за их содержание. Просьба не заливать файлы, защищенные авторскими правами, а также файлы нелегального содержания!