Ивановский Торрент трекер
Яндекс.Погода
 

[Цитировать]
димитри37

Любовь с привилегиями. Городские подробности
Жанр: драма
Год выпуска: 1989
Продолжительность: 01:15:34 + 01:21:26
Режиссёр: Владимир Кучинский
В ролях: Любовь Полищук, Вячеслав Тихонов, Олег Табаков, Лидия Федосеева-Шукшина, Пётр Щербаков, Юрате Онайтите, Александр Балуев, Игорь Волков, Александр Феклистов, Людмила Корюшкина, Светлана Жгун, Ирина Гордина, Владимир Гуркало, Юрий Саранцев, Лев Бутенин, Александра Назарова, Анатолий Ведёнкин, Галина Стаханова, Елена Богданова, Николай Дупак, Александр Кузьмичёв, Инга Будкевич, Валентина Дугина
Описание: Не совсем благополучная история любви пенсионера, бывшего крупного чиновника, и женщины, работающей на южном курорте водителем автофургона.
Доп. информация: Телеверсия (длиннее киноверсии на 30 минут).
Запись потока *.ts со спутника EUTELSAT, микширование в *.mpg программой VideoReDo.

Качество видео: DVB
Формат видео: MPEG-PS
Видео: MPEG Video, 720x576, 4:3, 25 кадр/сек, 4 848 Кбит/сек
Аудио: MPEG Audio, 192 kbps, 48,0 kHz, 2 канала

MediaInfo

General
Complete name : E:\Torrent\ГОРОДСКИЕ ПОДРОБНОСТИ\ГОРОДСКИЕ ПОДРОБНОСТИ 1.mpg
Format : MPEG-PS
File size : 2.72 GiB
Duration : 1h 15mn
Overall bit rate mode : Variable
Overall bit rate : 5 142 Kbps
Video
ID : 224 (0xE0)
Format : MPEG Video
Format version : Version 2
Format profile : Main@Main
Format settings, BVOP : Yes
Format settings, Matrix : Custom
Format settings, GOP : M=3, N=36
Duration : 1h 15mn
Bit rate mode : Variable
Bit rate : 4 848 Kbps
Maximum bit rate : 15.0 Mbps
Width : 720 pixels
Height : 576 pixels
Display aspect ratio : 4:3
Frame rate : 25.000 fps
Standard : PAL
Color space : YUV
Chroma subsampling : 4:2:0
Bit depth : 8 bits
Scan type : Interlaced
Scan order : Top Field First
Compression mode : Lossy
Bits/(Pixel*Frame) : 0.468
Stream size : 2.56 GiB (94%)
Audio
ID : 192 (0xC0)
Format : MPEG Audio
Format version : Version 1
Format profile : Layer 2
Duration : 1h 15mn
Bit rate mode : Constant
Bit rate : 192 Kbps
Channel(s) : 2 channels
Sampling rate : 48.0 KHz
Compression mode : Lossy
Delay relative to video : 17ms
Stream size : 104 MiB (4%)
General
Complete name : E:\Torrent\ГОРОДСКИЕ ПОДРОБНОСТИ\ГОРОДСКИЕ ПОДРОБНОСТИ 2.mpg
Format : MPEG-PS
File size : 2.92 GiB
Duration : 1h 21mn
Overall bit rate mode : Variable
Overall bit rate : 5 142 Kbps
Video
ID : 224 (0xE0)
Format : MPEG Video
Format version : Version 2
Format profile : Main@Main
Format settings, BVOP : Yes
Format settings, Matrix : Custom
Format settings, GOP : M=3, N=36
Duration : 1h 21mn
Bit rate mode : Variable
Bit rate : 4 848 Kbps
Maximum bit rate : 15.0 Mbps
Width : 720 pixels
Height : 576 pixels
Display aspect ratio : 4:3
Frame rate : 25.000 fps
Standard : PAL
Color space : YUV
Chroma subsampling : 4:2:0
Bit depth : 8 bits
Scan type : Interlaced
Scan order : Top Field First
Compression mode : Lossy
Bits/(Pixel*Frame) : 0.468
Stream size : 2.76 GiB (94%)
Audio
ID : 192 (0xC0)
Format : MPEG Audio
Format version : Version 1
Format profile : Layer 2
Duration : 1h 21mn
Bit rate mode : Constant
Bit rate : 192 Kbps
Channel(s) : 2 channels
Sampling rate : 48.0 KHz
Compression mode : Lossy
Delay relative to video : 9ms
Stream size : 112 MiB (4%)
Показать сообщения:    

Текущее время: 18-Окт 06:21

Часовой пояс: UTC - 1


Вы не можете начинать темы
Вы не можете отвечать на сообщения
Вы не можете редактировать свои сообщения
Вы не можете удалять свои сообщения
Вы не можете голосовать в опросах
Вы не можете прикреплять файлы к сообщениям
Вы не можете скачивать файлы

!ВНИМАНИЕ!
Сайт не предоставляет электронные версии произведений, а занимается лишь коллекционированием и каталогизацией ссылок, присылаемых и публикуемых на форуме нашими читателями. Если вы являетесь правообладателем какого-либо представленного материала и не желаете, чтобы ссылка на него находилась в нашем каталоге, свяжитесь с нами, и мы незамедлительно удалим ее. Файлы для обмена на трекере предоставлены пользователями сайта, и администрация не несет ответственности за их содержание. Просьба не заливать файлы, защищенные авторскими правами, а также файлы нелегального содержания!