Любовь и голуби (Владимир Меньшов) [1984, комедия, мелодрама, BDRip-AVC] :: Ивановский Торрент трекер
Важное объявление!
У Нас Все раздачи мультитрекерные, при нуле пиров в релизах, можете смело вставать на закачку!
Статистика раздачи
Размер:     |    Зарегистрирован:     |    Скачан:     |   
Нет
 
     
 
 
Автор Сообщение

димитри37

Стаж:
4 года 3 месяца
Сообщений:
1236

Репутация: 127

[+] [-]
Вне форума [Профиль] [ЛС]

Любовь и голуби-
Жанр: комедия, мелодрама
Год выпуска: 1984
Продолжительность: 01:44:44
Режиссёр: Владимир Меньшов
В ролях: Александр Михайлов, Нина Дорошина, Людмила Гурченко, Сергей Юрский, Наталья Тенякова, Яна Лисовская, Игорь Лях, Лада Сизоненко, Владимир Меньшов, Андрей Рабинович, Костя Михайлов
Описание: Ликвидируя неисправность лебедки, Василий Кузякин получил травму и путевку на юг. Встретил там роковую женщину Раису Захаровну и… вернулся с курорта не к себе в деревню, а в дом Раисы Захаровны. Началась для него новая жизнь, в которой было много непонятного и интересного, но не было дома, где остались жена Надя, дети и голуби…-Доп. информация:
Автор сценария: Владимир Гуркин
Оператор: Юрий Невский
Композитор: Валентин Левашов
Премьера: 7 января 1985
Награды: премия «Золотая ладья» на МКФ комедий в Торремолиносе (1985); кинонаграды "MTV Россия" (2009) - номинация «Лучший советский фильм»-Рейтинг:
-Качество видео: BDRip-AVC
Формат видео: MKV
Видео: AVC H.264, 1024x576 (16:9), 23.976 fps, 1989 Kbps
Аудио: AC3, 48 kHz, 448 Kbps, 6 ch

Интересные факты

* Для того, чтобы в конце картины заснять «расцветающее дерево», был использован знаменитый фокус с тростью, из которой выскакивают цветы. На съёмки был приглашён фокусник, к дереву прикрепили десять подобных тростей, с первого же раза сработали семь из них — кадр был снят с первого дубля.
* Часть монологов Раисы Захаровны об эзотерике и пр. из фильма была вырезана.
* Съёмки фильма велись летом в Карелии, в городе Медвежьегорске, на окраине города, в доме на берегу реки Кумса.
* Съёмки эпизода купания Раисы Захаровны и Василия велись в ноябре в Батуми (Аджария). Температура воды составляла 14 градусов Цельсия.
* Во время съёмок эпизода, когда Василий выпадает из дверей своего дома в море, Александр Михайлов чуть не погиб. Эпизод снимался так: актёр падал с пирса, под водой его раздевали водолазы, и он выныривал рядом с Гурченко уже в одних трусах. Первый дубль показался режиссёру медленным, решили снять второй. Во время его съёмок, под водой возникли проблемы со снятием галстука, актёр чуть не утонул, галстук пришлось разрезать. В итоге в фильм вошёл третий дубль, в котором разрезанный ранее галстук просто сшили парой стежков.
* По сценарию, Надежда — женщина средних лет, а баба Шура — старуха-пенсионерка. Однако актриса Нина Дорошина, исполнительница роли Надежды, на 10 лет старше Натальи Теняковой, сыгравшей бабу Шуру. На момент съёмок Дорошиной было 50 лет, а Теняковой — только 40. Александру Михайлову, исполнителю роли Василия, тоже было 40 лет.
* Сергей Юрский и Наталья Тенякова, сыгравшие супругов дядю Митю и бабу Шуру — муж и жена.
* В эпизоде, когда Василий тайком заглядывает в окно своего дома, его домочадцы смотрят по телевизору фильм «Москва слезам не верит», также снятый Владимиром Меньшовым.
* Когда Дядя Митя рассуждает о поводе выпить, он листает отрывной календарь, во время чего произносит: «80 лет со дня рождения… Ух ты! А ей уж 80?…». По всей видимости, имеется в виду актриса Татьяна Пельтцер, которая действительно в 1984 году праздновала свое 80-летие.
* Фильм снят по одноимённой пьесе, написанной театральным актёром Владимиром Гуркиным в 1981 году.
-

MediaInfo

General
Unique ID : 199832765953207534748330068177744936444 (0x9656640A485C05998EDB84BFD715BDFC)
Complete name : D:\Video\LubovIGolubi\LubovIGolubi.mkv
Format : Matroska
Format version : Version 4 / Version 2
File size : 1.82 GiB
Duration : 1h 44mn
Overall bit rate : 2 486 Kbps
Encoded date : UTC 2010-02-22 21:41:31
Writing application : mkvmerge v5.9.0 ('On The Loose') built on Dec 9 2012 15:37:01
Writing library : libebml v1.3.0 + libmatroska v1.4.0
Video #1
ID : 1
Format : AVC
Format/Info : Advanced Video Codec
Format profile : High@L4.1
Format settings, CABAC : Yes
Format settings, ReFrames : 8 frames
Codec ID : V_MPEG4/ISO/AVC
Duration : 1h 44mn
Bit rate : 1 989 Kbps
Width : 1 024 pixels
Height : 576 pixels
Display aspect ratio : 16:9
Frame rate mode : Constant
Frame rate : 23.976 fps
Color space : YUV
Chroma subsampling : 4:2:0
Bit depth : 8 bits
Scan type : Progressive
Bits/(Pixel*Frame) : 0.141
Stream size : 1.45 GiB (80%)
Title : Видео
Writing library : x264 core 129 r2230 1cffe9f
Encoding settings : cabac=1 / ref=8 / deblock=1:-2:-1 / analyse=0x3:0x133 / me=umh / subme=9 / psy=1 / psy_rd=1.00:0.00 / mixed_ref=1 / me_range=16 / chroma_me=1 / trellis=2 / 8x8dct=1 / cqm=0 / deadzone=21,11 / fast_pskip=0 / chroma_qp_offset=-2 / threads=12 / lookahead_threads=2 / sliced_threads=0 / nr=0 / decimate=1 / interlaced=0 / bluray_compat=0 / constrained_intra=0 / bframes=16 / b_pyramid=2 / b_adapt=2 / b_bias=0 / direct=3 / weightb=1 / open_gop=0 / weightp=2 / keyint=240 / keyint_min=24 / scenecut=40 / intra_refresh=0 / rc_lookahead=60 / rc=crf / mbtree=1 / crf=19.5 / qcomp=0.70 / qpmin=0 / qpmax=69 / qpstep=4 / ip_ratio=1.40 / aq=1:1.00
Language : Russian
Default : Yes
Forced : No
Audio #2
ID : 2
Format : AC-3
Format/Info : Audio Coding 3
Mode extension : CM (complete main)
Format settings, Endianness : Big
Codec ID : A_AC3
Duration : 1h 44mn
Bit rate mode : Constant
Bit rate : 448 Kbps
Channel(s) : 6 channels
Channel positions : Front: L C R, Side: L R, LFE
Sampling rate : 48.0 KHz
Bit depth : 16 bits
Compression mode : Lossy
Stream size : 336 MiB (18%)
Title : Русский
Language : Russian
Default : Yes
Forced : No
-

Скриншот c названием фильма

Скриншоты


Показать сообщения:    

Текущее время: Сегодня 12:21

Часовой пояс: GMT



Вы не можете начинать темы
Вы не можете отвечать на сообщения
Вы не можете редактировать свои сообщения
Вы не можете удалять свои сообщения
Вы не можете голосовать в опросах
Вы не можете прикреплять файлы к сообщениям
Вы не можете скачивать файлы