Важное объявление!
У Нас Все раздачи мультитрекерные, при нуле пиров в релизах, можете смело вставать на закачку!
 
Автор Сообщение

димитри37

Стаж:
4 года 1 месяц
Сообщений:
1236

Репутация: 127

[+] [-]
Вне форума [Профиль] [ЛС]

Любовь за любовь
Год выпуска: 2013
Производство: Star Media
Жанр: Историческая мелодрама
Продолжительность: 4 х ~00:45:00
Субтитры: нет
Режиссёр: Сергей Ашкенази
В ролях: Ирина Виноградова, Анна Пескова, Максим Матвеев, Сергей Шакуров, Михаил Пореченков, Алексей Гуськов, Владимир Машков, Валерий Афанасьев и другие.
Описание: Весна 1914 года. Канун Первой мировой войны. Уланский полк, в котором служит поручик Александр Григорьев стоит в заштатном малороссийском городке. Офицеры томятся от скуки, вне службы проводят время в убогом трактире. Пьют, спускают в карты, и без того, небольшое жалование. Однажды городской аптекарь, представил поручика местному богачу - коммерции советнику Стаховскому, чья племянница Нина, при случайной встрече, пленила Григорьева своей красотой. Его пригласили к Стаховским. Он был поражен роскошью и изысканностью их дома, а также радушию, с которым был принят. Поручик весь вечер танцевал с Ниной, но вдруг спохватился, что забыл пригласит на вальс дочь Стаховского, хорошенькую семнадцатилетнюю Леру. Он поспешил исправить оплошность, но в ответ на его приглашение девушка неожиданно разрыдалась. Он сразу не понял в чем дело, смешался и отошел. А через пять минут узнал от Нины (та испуганно увела его из гостиной), что Лера больна, что в результате несчастного случая, ее ноги парализованы, и с тех пор она прикована к инвалидной коляске. Поручик смущенно ретировался. И чтоб загладить вину, он, на последние деньги, купил огромный букет драгоценных роз, и послал их Лере. Девушка ответила благодарным письмом и новым приглашением.
Качество: HDTVRip 720p [Рип с HDTV 1080i]
Формат: MKV
Видео кодек: H.264
Аудио кодек: MPEG Audio
Видео: x264, 1280 х 720 (16:9), 25,000 кадр/сек, ~ 3700 Кбит/сек
Аудио: MPEG Audio 48000Hz stereo 192 Кбит/сек
Сторонней рекламы нет!

MediaInfo

ОбщееУникальный идентификатор : 179658601170328217732709536944800369966 (0x8728FCEBFFDC309AB921FA407D678D2E)Полное имя : E:\Downloads\55\Любовь за любовь HDTVRip 720p\Любовь за любовь_01_серия_HDTVRip_720p_by_Серый1779.mkvФормат : MatroskaРазмер файла : 1,26 ГбайтПродолжительность : 46 м.Общий поток : 3894 Кбит/секДата кодирования : UTC 2013-04-19 16:54:26Программа кодирования : mkvmerge v4.9.1 ('Ich will') built on Sep 21 2011 17:48:11Библиотека кодирования : libebml v1.2.1 + libmatroska v1.2.0
ВидеоИдентификатор : 1Формат : AVCФормат/Информация : Advanced Video CodecПрофиль формата : High@L4.1Параметр CABAC формата : ДаПараметр ReFrames формата : 9 кадровИдентификатор кодека : V_MPEG4/ISO/AVCПродолжительность : 46 м.Битрейт : 3700 Кбит/секШирина : 1280 пикс.Высота : 720 пикс.Соотношение сторон : 16:9Частота кадров : 25,000 кадр/секЦветовое пространство : YUVПодвыборка цветности : 4:2:0Битовая глубина : 8 битТип развёртки : ПрогрессивнаяБит/(Пиксели*Кадры) : 0.161Размер потока : 1,17 Гбайт (93%)Библиотека кодирования : x264 core 118 r2085 8a62835Настройки программы : cabac=1 / ref=9 / deblock=1:-3:-3 / analyse=0x3:0x133 / me=umh / subme=9 / psy=1 / psy_rd=1.00:0.15 / mixed_ref=1 / me_range=32 / chroma_me=1 / trellis=2 / 8x8dct=1 / cqm=0 / deadzone=21,11 / fast_pskip=0 / chroma_qp_offset=-3 / threads=3 / sliced_threads=0 / nr=0 / decimate=1 / interlaced=0 / bluray_compat=0 / constrained_intra=0 / bframes=9 / b_pyramid=2 / b_adapt=2 / b_bias=0 / direct=3 / weightb=1 / open_gop=0 / weightp=2 / keyint=250 / keyint_min=25 / scenecut=40 / intra_refresh=0 / rc=2pass / mbtree=0 / bitrate=3700 / ratetol=1.0 / qcomp=0.60 / qpmin=0 / qpmax=69 / qpstep=4 / cplxblur=20.0 / qblur=0.5 / ip_ratio=1.40 / pb_ratio=1.30 / aq=2:0.70Основные цвета : BT.470-6 System B, BT.470-6 System G, BT.601-6 625, BT.1358 625, BT.1700 625 PAL, BT.1700 625 SECAMХарактеристики трансфера : BT.470-6 System B, BT.470-6 System GКоэффициенты матрицы : BT.470-6 System B, BT.470-6 System G, BT.601-6 625, BT.1358 625, BT.1700 625 PAL, BT.1700 625 SECAM, IEC 61966-2-4 601
АудиоИдентификатор : 2Формат : MPEG AudioВерсия формата : Version 1Профиль формата : Layer 2Идентификатор кодека : A_MPEG/L2Идентификатор кодека/Подсказка : MP2Продолжительность : 46 м.Вид битрейта : ПостоянныйБитрейт : 192 Кбит/секКаналы : 2 каналаЧастота : 48,0 КГцМетод сжатия : С потерямиРазмер потока : 63,6 Мбайт (5%)

h264 log

x264 [info]: frame I:551 Avg QP:14.82 size:121936x264 [info]: frame P:14541 Avg QP:17.30 size: 41129x264 [info]: frame B:54354 Avg QP:19.32 size: 11396x264 [info]: consecutive B-frames: 1.4% 1.1% 16.5% 7.4% 6.7% 65.6% 1.2% 0.1% 0.1% 0.0%x264 [info]: mb I I16..4: 9.2% 70.0% 20.8%x264 [info]: mb P I16..4: 2.2% 7.9% 1.0% P16..4: 54.1% 24.7% 7.0% 0.8% 0.3% skip: 1.9%x264 [info]: mb B I16..4: 0.1% 0.4% 0.1% B16..8: 36.0% 6.8% 1.9% direct: 8.2% skip:46.7% L0:37.7% L1:49.2% BI:13.1%x264 [info]: 8x8 transform intra:70.5% inter:55.6%x264 [info]: direct mvs spatial:99.1% temporal:0.9%x264 [info]: coded y,uvDC,uvAC intra: 76.3% 90.3% 75.3% inter: 22.0% 34.4% 7.7%x264 [info]: i16 v,h,dc,p: 31% 17% 12% 40%x264 [info]: i8 v,h,dc,ddl,ddr,vr,hd,vl,hu: 15% 12% 10% 7% 10% 11% 11% 11% 12%x264 [info]: i4 v,h,dc,ddl,ddr,vr,hd,vl,hu: 16% 11% 5% 8% 13% 13% 11% 11% 12%x264 [info]: i8c dc,h,v,p: 43% 21% 21% 15%x264 [info]: Weighted P-Frames: Y:2.5% UV:1.4%x264 [info]: ref P L0: 43.7% 9.4% 21.5% 6.1% 6.2% 3.6% 4.0% 2.2% 2.5% 0.7% 0.0%x264 [info]: ref B L0: 84.6% 9.0% 2.5% 1.4% 0.9% 0.8% 0.5% 0.2%x264 [info]: ref B L1: 96.0% 4.0%x264 [info]: kb/s:3699.76
x264 [total]: encoded 69446 frames, 2.35 fps, 3699.76 kb/s

Внимание ! Раздача ведётся путём добавления новых серий

Внимание! Раздача ведётся путём добавления новых серий; при каждом добавлении создётся новый торрент. Чтобы начать докачку новой серии, пользователям необходимо сделать следующее:
(1) остановить скачивание,
(2) удалить старый торрент у себя из клиента (старые серии удалять не надо),
(3) скачать новый торрент и запустить его у себя в клиенте вместо старого, при этом указать клиенту путь в старую папку куда и должно происходить скачивание новых серий.
Ваш клиент при этом должен произвести хеширование (проверку) старой папки (если не производит сам - помогите ему сделать это), и будет докачивать только те серии которых у вас ещё нет. Старые серии при этом не удаляются, а продолжают раздаваться!
Eсли вы уже удалили старые серии, то предотвратить повторную закачку старых серий можно, отжав галочку в соответсвующих местах при запуске нового торрента. По возможности, желательно не удалять старые серии как можно дольше чтобы релизёр не столько продолжал раздавать старые серии, а смог сконцентрироваться на новых.

Скриншоты

Показать сообщения:    

Текущее время: Сегодня 13:50

Часовой пояс: GMT



Вы не можете начинать темы
Вы не можете отвечать на сообщения
Вы не можете редактировать свои сообщения
Вы не можете удалять свои сообщения
Вы не можете голосовать в опросах
Вы не можете прикреплять файлы к сообщениям
Вы не можете скачивать файлы