Важное объявление!
У Нас Все раздачи мультитрекерные, при нуле пиров в релизах, можете смело вставать на закачку!
Статистика раздачи
Размер:     |    Зарегистрирован:     |    Скачан:     |   
Нет
 
     
 
 
Автор Сообщение

HUNTER

Стаж:
5 лет
Сообщений:
67979

Репутация: 101

[+] [-]
Вне форума [Профиль] [ЛС]

-
-
Год выпуска: 2014
Страна: Россия
Жанр: Комедия
Продолжительность:01:18:45
Перевод:Оригинал [Лицензия]
Cубтитры:Нет- Режиссер:Марюс Вайсберг, Дэвид Додсон
В ролях: Алексей Чадов, Владимир Зеленский, Светлана Ходченкова, Вера Брежнева, Вилле Хаапасало, Настя Задорожная, Филипп Киркоров, Шэрон Стоун, Игорь Жижикин, Екатерина Климова- Описание:В жизни каждого отца, рано или поздно наступает момент, когда жена улетает на заслуженный отдых, а он остается один на один с собственным ребенком. Казалось бы — ничего сложного! Также подумали Игорь, Артем и Сауна, даже не подозревая, какой «водопад» приключений накроет их с головой.Измученные «прелестями» отцовства, парни встречают своего старого приятеля Святого Валентина. Снимая стресс за бутылочкой виски, ребята в шутку мечтают о том, чтобы их дети поскорее стали взрослыми.А на утро, шокированные папаши понимают — их мечта сбылась и теперь они на собственной шкуре поймут, что значит поговорка: Большие дети — большие проблемы… - Качество видео:DVD5
Формат:DVD Video
Видео кодек:MPEG2
Аудио кодек:AC3
Видео:MPEG Video at 348 Мбит/сек, (720x576@1024x576) (1.778) at 25.000 fps
Аудио:AC-3 at 256 Кбит/сек, 6 каналов, 48,0 КГц -

Скриншоты меню

Скриншоты

MediaInfo

Код: copyText_writeLink('this.parentNode.parentNode.nextSibling.nextSibling');
Код:
Формат                                   : MPEG Video
Версия формата                           : Version 2
Профиль формата                          : Main@Main
Параметр BVOP формата                    : Да
Параметр матрицы формата                 : Выборочная
Параметр GOP формата                     : Variable
Продолжительность                        : 22 м.
Вид битрейта                             : Переменный
Битрейт                                  : 5992 Кбит/сек
Максимальный битрейт                     : 9000 Кбит/сек
Ширина                                   : 720 пикселей
Высота                                   : 576 пикселей
Соотношение сторон                       : 16:9
Частота кадров                           : 25,000 кадров/сек
Стандарт вещания                         : PAL
Цветовое пространство                    : YUV
Субдискретизация насыщенности            : 4:2:0
Битовая глубина                          : 8 бит
Тип развёртки                            : Чересстрочная
Порядок развёртки                        : Верхнее поле первое
Метод сжатия                             : С потерями
Бит/(Пиксели*Кадры)                      : 0.578
Временной код первого кадра              : 01:44:54:17
Оригинал временного кода                 : Group of pictures header
Размер потока                            : 962 Мбайт (94%)
Аудио
Идентификатор                            : 189 (0xBD)-128 (0x80)
Формат                                   : AC-3
Формат/Информация                        : Audio Coding 3
Расширение режима                        : CM (complete main)
Параметр Endianness формата              : Big
Режим смешивания                         : DVD-Video
Продолжительность                        : 22 м.
Вид битрейта                             : Постоянный
Битрейт                                  : 256 Кбит/сек
Каналы                                   : 6 каналов
Расположение каналов                     : Front: L C R, Side: L R, LFE
Частота                                  : 48,0 КГц
Битовая глубина                          : 16 бит
Метод сжатия                             : С потерями
Задержка видео                           : -384 мс.
Размер потока                            : 41,1 Мбайт (4%)
Меню
Общее
Полное имя                               : C:\Users\Raul\Downloads\Lubov.v.bolsho. gorode.3.2013.O.DVD5\VIDEO_TS\VTS_02_4.VOB
Формат                                   : MPEG-PS
Размер файла                             : 520 Мбайт
Продолжительность                        : 11 м.
Режим общего битрейта                    : Переменный
Общий поток                              : 6373 Кбит/сек
Видео
Идентификатор                            : 224 (0xE0)
Формат                                   : MPEG Video
Версия формата                           : Version 2
Профиль формата                          : Main@Main
Параметр BVOP формата                    : Да
Параметр матрицы формата                 : Выборочная
Параметр GOP формата                     : M=3, N=15
Продолжительность                        : 11 м.
Вид битрейта                             : Переменный
Битрейт                                  : 5990 Кбит/сек
Максимальный битрейт                     : 9000 Кбит/сек
Ширина                                   : 720 пикселей
Высота                                   : 576 пикселей
Соотношение сторон                       : 16:9
Частота кадров                           : 25,000 кадров/сек
Стандарт вещания                         : PAL
Цветовое пространство                    : YUV
Субдискретизация насыщенности            : 4:2:0
Битовая глубина                          : 8 бит
Тип развёртки                            : Чересстрочная
Порядок развёртки                        : Верхнее поле первое
Метод сжатия                             : С потерями
Бит/(Пиксели*Кадры)                      : 0.578
Временной код первого кадра              : 02:07:21:23
Оригинал временного кода                 : Group of pictures header
Размер потока                            : 488 Мбайт (94%)
Аудио
Идентификатор                            : 189 (0xBD)-128 (0x80)
Формат                                   : AC-3
Формат/Информация                        : Audio Coding 3
Расширение режима                        : CM (complete main)
Параметр Endianness формата              : Big
Режим смешивания                         : DVD-Video
Продолжительность                        : 11 м.
Вид битрейта                             : Постоянный
Битрейт                                  : 256 Кбит/сек
Каналы                                   : 6 каналов
Расположение каналов                     : Front: L C R, Side: L R, LFE
Частота                                  : 48,0 КГц
Битовая глубина                          : 16 бит
Метод сжатия                             : С потерями
Задержка видео                           : -424 мс.
Размер попотока                            : 20,9 Мбайт (4%)

_________________
Показать сообщения:    

Текущее время: Сегодня 00:48

Часовой пояс: GMT



Вы не можете начинать темы
Вы не можете отвечать на сообщения
Вы не можете редактировать свои сообщения
Вы не можете удалять свои сообщения
Вы не можете голосовать в опросах
Вы не можете прикреплять файлы к сообщениям
Вы не можете скачивать файлы