Важное объявление!
У Нас Все раздачи мультитрекерные, при нуле пиров в релизах, можете смело вставать на закачку!
Статистика раздачи
Размер:     |    Зарегистрирован:     |    Скачан:     |   
Нет
 
     
 
 
Автор Сообщение

HUNTER

Стаж:
5 лет
Сообщений:
67898

Репутация: 101

[+] [-]
Вне форума [Профиль] [ЛС]

Любовь-морковь 3
Страна: Россия
Жанр: комедия
Год выпуска: 2010
Продолжительность: 01:37:40-Перевод: Не требуется
Cубтитры: русские
Оригинальная аудиодорожка: русский-Режиссер: Сергей Гинзбург-В ролях: Кристина Орбакайте, Гоша Куценко, Лия Ахеджакова, Владимир Меньшов, Алексей Гуськов, Вячеслав Манучаров, Алина Булынко, Денис Парамонов, Михаил Козаков, Андрей Ургант-Описание: В семье Голубевых — опять стихийное бедствие. Без предупреждения к ним нагрянула теща — утонченная любительница музыки и поэзии. А за ней свекор — бравый полковник, простой как Устав Вооруженных сил. Хотя со времени свадьбы прошло почти пятнадцать лет, мама Марины по-прежнему недолюбливает Андрея, а отец Андрея даже не скрывает, что мечтал о другой невестке. А уж когда старики сталкиваются друг с другом — это гром и молния! И как всегда, в самый сложный момент на пороге появляется профессор Коган, специалист по решению семейных проблем-Тип релиза: BDRip 1080p
Контейнер: MKV-Видео: MPEG4 AVC, 1920x816, 11.1 mb/s, 23.976 fps
Аудио: DTS, 48.0 KHz, 1510 kb/s, 6 ch, 24 bits
Формат субтитров: softsub (SRT)

MediaInfo

General
Complete name : L:\РАЗДАЧИ НА TORRENTS.RU\LM3.BDRip.1080p.FSB[uniongang.tv].mkv
Format : Matroska
File size : 8.56 GiB
Duration : 1h 37mn
Overall bit rate : 12.6 Mbps
Encoded date : UTC 2011-06-20 16:52:41
Writing application : mkvmerge v4.0.0 ('The Stars were mine') сборка от Jun 11 2010 23:24:27
Writing library : libebml v1.0.0 + libmatroska v1.0.0
Video
ID : 1
Format : AVC
Format/Info : Advanced Video Codec
Format profile : High@L4.1
Format settings, CABAC : Yes
Format settings, ReFrames : 5 frames
Muxing mode : Container profile=Unknown@4.1
Codec ID : V_MPEG4/ISO/AVC
Duration : 1h 37mn
Bit rate : 10.8 Mbps
Nominal bit rate : 11.1 Mbps
Width : 1 920 pixels
Height : 816 pixels
Display aspect ratio : 2.35
Frame rate : 23.976 fps
Resolution : 24 bits
Colorimetry : 4:2:0
Scan type : Progressive
Bits/(Pixel*Frame) : 0.287
Stream size : 7.35 GiB (86%)
Title : LM3.BDRip.1080p.FSB[uniongang.tv]
Writing library : x264 core 115 r1995 c1e60b9
Encoding settings : cabac=1 / ref=5 / deblock=1:-3:-3 / analyse=0x3:0x133 / me=umh / subme=9 / psy=1 / psy_rd=1.05:0.00 / mixed_ref=1 / me_range=64 / chroma_me=1 / trellis=1 / 8x8dct=1 / cqm=0 / deadzone=21,11 / fast_pskip=1 / chroma_qp_offset=-2 / threads=6 / sliced_threads=0 / nr=0 / decimate=1 / interlaced=0 / bluray_compat=0 / constrained_intra=0 / bframes=4 / b_pyramid=2 / b_adapt=1 / b_bias=0 / direct=1 / weightb=1 / open_gop=0 / weightp=2 / keyint=250 / keyint_min=23 / scenecut=40 / intra_refresh=0 / rc_lookahead=40 / rc=2pass / mbtree=1 / bitrate=11059 / ratetol=1.0 / qcomp=0.60 / qpmin=0 / qpmax=69 / qpstep=4 / cplxblur=20.0 / qblur=0.5 / ip_ratio=1.40 / aq=1:1.00
Language : Russian
Audio
ID : 2
Format : DTS
Format/Info : Digital Theater Systems
Codec ID : A_DTS
Duration : 1h 37mn
Bit rate mode : Constant
Bit rate : 1 510 Kbps
Channel(s) : 6 channels
Channel positions : Front: L C R, Surround: L R, LFE
Sampling rate : 48.0 KHz
Resolution : 24 bits
Video delay : 22ms
Stream size : 1.03 GiB (12%)
Title : RUS.DTS.LM3.BDRip.1080p.FSB[uniongang.tv]
Language : Russian
Text
ID : 3
Format : UTF-8
Codec ID : S_TEXT/UTF8
Codec ID/Info : UTF-8 Plain Text
Language : Russian

Скриншоты


_________________
Показать сообщения:    

Текущее время: Сегодня 16:41

Часовой пояс: GMT



Вы не можете начинать темы
Вы не можете отвечать на сообщения
Вы не можете редактировать свои сообщения
Вы не можете удалять свои сообщения
Вы не можете голосовать в опросах
Вы не можете прикреплять файлы к сообщениям
Вы не можете скачивать файлы