Ивановский Торрент трекер
Яндекс.Погода
 

[Цитировать]
HUNTER

Любовник для Люси-

Год выпуска: 2013
Страна: Украина
Жанр: мелодрама
Продолжительность: 01:30:55
Перевод: Оригинал-Режиссер: Олег Масленников-В ролях: Оксана Гуляева, Николай Добрынин, Иван Ивашкин, Валерия Ходос, Олег Драч, Валерия Чайковская, Юрий Гребельник, Виталина Библив, Игорь Портянко, Алла Мартынюк, Юрий Тарасов, Фёдор Гуринец, Дмитрий Фрид, Олесь Кацион, Елена Турбал-Описание:В свой сороковой день рождения кассир супермаркета Люся оглянулась на свою жизнь и осталась довольна - дом, муж, 17-летний сын и стабильная работа. Но в этот же день две неловкие фразы из уст двух самых дорогих Люсе мужчин переворачивают ее мир. Она начинает подмечать то, на что еще вчера не обращала никакого внимания. И видит - мужчины на улице не бросают на нее заинтересованных взглядов, а муж Гриша, как кажется Люсе, живет с ней, скорее по привычке, нежели по любви.-Качество: SATRip
Формат: AVI
Видео кодек: XviD
Аудио кодеk: MPEG Layer 3
Видео: 704x384 (1.83:1), 25 fps, XviD build 50 ~2049 kbps avg, 0.30 bit/pixel
Аудио: Russian: 48 kHz, MPEG Layer 3, 2 ch, ~128.00 kbps avg

-

МедиаИнфо

Код: copyText_writeLink('this.parentNode.parentNode.nextSibling.nextSibling'); General
Complete name : Любовник для Люси. 2013.avi
Format : AVI
Format/Info : Audio Video Interleave
File size : 1.39 GiB
Duration : 1h 30mn
Overall bit rate : 2 191 Kbps
Writing library : Boilsoft AVI tool build 1/release
Video
ID : 0
Format : MPEG-4 Visual
Format profile : Simple@L3
Format settings, BVOP : No
Format settings, QPel : No
Format settings, GMC : No warppoints
Format settings, Matrix : Default (H.263)
Codec ID : DX50
Codec ID/Hint : DivX 5
Duration : 1h 30mn
Bit rate : 2 050 Kbps
Width : 704 pixels
Height : 384 pixels
Display aspect ratio : 16:9
Frame rate : 25.000 fps
Color space : YUV
Chroma subsampling : 4:2:0
Bit depth : 8 bits
Scan type : Progressive
Bits/(Pixel*Frame) : 0.303
Stream size : 1.30 GiB (94%)
Writing library : XviD 1.2.1 (UTC 2008-12-04)
Audio
ID : 1
Format : MPEG Audio
Format version : Version 1
Format profile : Layer 3
Mode : Joint stereo
Mode extension : MS Stereo
Codec ID : 55
Codec ID/Hint : MP3
Duration : 1h 30mn
Bit rate mode : Constant
Bit rate : 128 Kbps
Channel(s) : 2 channels
Sampling rate : 48.0 KHz
Stream size : 83.2 MiB (6%)
Alignment : Aligned on interleaves
Interleave, duration : 24 ms (0.60 video frame)
Interleave, preload duration : 504 ms
Writing library : LAME3.98.2
-
- -
0 человек читают эту тему: 0 пользователей, 0 скрытых пользователей, 0 гостей

Показать сообщения:    

Текущее время: 22-Авг 19:46

Часовой пояс: UTC - 1


Вы не можете начинать темы
Вы не можете отвечать на сообщения
Вы не можете редактировать свои сообщения
Вы не можете удалять свои сообщения
Вы не можете голосовать в опросах
Вы не можете прикреплять файлы к сообщениям
Вы не можете скачивать файлы

!ВНИМАНИЕ!
Сайт не предоставляет электронные версии произведений, а занимается лишь коллекционированием и каталогизацией ссылок, присылаемых и публикуемых на форуме нашими читателями. Если вы являетесь правообладателем какого-либо представленного материала и не желаете, чтобы ссылка на него находилась в нашем каталоге, свяжитесь с нами, и мы незамедлительно удалим ее. Файлы для обмена на трекере предоставлены пользователями сайта, и администрация не несет ответственности за их содержание. Просьба не заливать файлы, защищенные авторскими правами, а также файлы нелегального содержания!