Важное объявление!
У Нас Все раздачи мультитрекерные, при нуле пиров в релизах, можете смело вставать на закачку!
Статистика раздачи
Размер:     |    Зарегистрирован:     |    Скачан:     |   
Нет
 
     
 
 
Автор Сообщение

HUNTER

Стаж:
5 лет
Сообщений:
67920

Репутация: 101

[+] [-]
Вне форума [Профиль] [ЛС]

Лучшее Рождество! / Nativity!
Страна: Великобритания
Студия: BBC Films, Mirrorball Films
Жанр: комедия, семейный
Год выпуска: 2009
Продолжительность: 01:45:56
Перевод: Профессиональный (двухголосый закадровый) студия NLS
Cубтитры: английские
Оригинальная аудиодорожка: английский
Режиссер: Дэбби Иситт / Debbie Isitt
В ролях: Мартин Фриман, Марк Вуттон, Джейсон Уоткинс, Эшли Дженсен, Пэм Феррис, Алан Карр, Рикки Томлинсон, Рози Кавальеро, Джон Сешнс, Филлис Логан
Описание: Пол Маденс, школьный учитель, и в прошлом неудавшийся актер театра. По жизни неудачник и вечно недовольный жизнью человек. В таком ассорти характеристик тяжело найти нужное качество для удачной постановки школьного рождественского спектакля, в котором ему отвели роль продюсера. А тут еще и «старая» любовь всплыла из неоткуда. Кому же захочется ударить в грязь лицом на виду у всех?!
Доп. информация: За дорожку студия NLS спасибо 25k.

Sample
Тип релиза: BDRip 720p - CRiSC
Контейнер: MKV
Видео: MPEG4 AVC Video, H264, 16:9, 1278x720, 23.976 fps, 8500 Kbps
Аудио: Russian (AC3, 2 ch, 192 kbps, 16 bits, 48.0 KHz) - DVO
Аудио 2: English (AC3, 6 ch, 640 kbps, 16 bits, 48.0 KHz) - оригинал
Формат субтитров: softsub (SRT)

MediaInfo

General
Unique ID : 209311200111903575095593487930621800834 (0x9D77DEECB0D5C109BF76630E89ADB182)
Complete name : E:\Nativity! 2009 BDRip 720p-CRiSC.mkv
Format : Matroska
Format version : Version 4 / Version 2
File size : 6.91 GiB
Duration : 1h 45mn
Overall bit rate : 9 333 Kbps
Encoded date : UTC 2015-12-15 10:41:14
Writing application : mkvmerge v6.1.0 ('Old Devil') built on Mar 2 2013 14:32:37
Writing library : libebml v1.3.0 + libmatroska v1.4.0
Video
ID : 1
Format : AVC
Format/Info : Advanced Video Codec
Format profile : High@L4.1
Format settings, CABAC : Yes
Format settings, ReFrames : 9 frames
Codec ID : V_MPEG4/ISO/AVC
Duration : 1h 45mn
Bit rate : 8 500 Kbps
Width : 1 278 pixels
Height : 720 pixels
Display aspect ratio : 16:9
Frame rate mode : Constant
Frame rate : 23.976 fps
Color space : YUV
Chroma subsampling : 4:2:0
Bit depth : 8 bits
Scan type : Progressive
Bits/(Pixel*Frame) : 0.385
Stream size : 6.15 GiB (89%)
Writing library : x264 core 148 r2579kMod 73ae2d1
Encoding settings : cabac=1 / ref=9 / deblock=1:-3:-3 / analyse=0x3:0x133 / me=umh / subme=10 / psy=1 / fade_compensate=0.00 / psy_rd=1.10:0.00 / mixed_ref=1 / me_range=64 / chroma_me=1 / trellis=2 / 8x8dct=1 / cqm=0 / deadzone=21,11 / fast_pskip=0 / chroma_qp_offset=-2 / threads=12 / lookahead_threads=2 / sliced_threads=0 / nr=0 / decimate=0 / interlaced=0 / bluray_compat=0 / constrained_intra=0 / fgo=0 / bframes=7 / b_pyramid=2 / b_adapt=2 / b_bias=0 / direct=3 / weightb=1 / open_gop=0 / weightp=2 / keyint=250 / keyint_min=23 / scenecut=40 / intra_refresh=0 / rc_lookahead=40 / rc=2pass / mbtree=0 / bitrate=8500 / ratetol=1.0 / qcomp=0.70 / qpmin=0 / qpmax=69 / qpstep=4 / cplxblur=20.0 / qblur=0.5 / vbv_maxrate=50000 / vbv_bufsize=62500 / nal_hrd=none / filler=0 / ip_ratio=1.10 / pb_ratio=1.10 / aq=1:0.60
Language : English
Default : Yes
Forced : No
Color primaries : BT.709
Transfer characteristics : BT.709
Matrix coefficients : BT.709
Audio #1
ID : 2
Format : AC-3
Format/Info : Audio Coding 3
Mode extension : CM (complete main)
Format settings, Endianness : Big
Codec ID : A_AC3
Duration : 1h 45mn
Bit rate mode : Constant
Bit rate : 192 Kbps
Channel count : 2 channels
Channel positions : Front: L R
Sampling rate : 48.0 KHz
Bit depth : 16 bits
Compression mode : Lossy
Stream size : 145 MiB (2%)
Language : Russian
Default : Yes
Forced : No
Audio #2
ID : 3
Format : AC-3
Format/Info : Audio Coding 3
Mode extension : CM (complete main)
Format settings, Endianness : Big
Codec ID : A_AC3
Duration : 1h 45mn
Bit rate mode : Constant
Bit rate : 640 Kbps
Channel count : 6 channels
Channel positions : Front: L C R, Side: L R, LFE
Sampling rate : 48.0 KHz
Bit depth : 16 bits
Compression mode : Lossy
Stream size : 485 MiB (7%)
Language : English
Default : No
Forced : No
Text
ID : 4
Format : UTF-8
Codec ID : S_TEXT/UTF8
Codec ID/Info : UTF-8 Plain Text
Language : English
Default : No
Forced : No
Menu
00:00:00.000 : en:00:00:00.000
00:06:49.117 : en:00:06:49.117
00:14:13.811 : en:00:14:13.811
00:27:15.300 : en:00:27:15.300
00:38:12.582 : en:00:38:12.582
00:45:31.312 : en:00:45:31.312
00:55:51.515 : en:00:55:51.515
01:06:48.254 : en:01:06:48.254
01:15:20.808 : en:01:15:20.808
01:22:42.082 : en:01:22:42.082
01:31:03.500 : en:01:31:03.500
01:38:40.373 : en:01:38:40.373

Скриншоты


_________________
Показать сообщения:    

Текущее время: Сегодня 16:55

Часовой пояс: GMT



Вы не можете начинать темы
Вы не можете отвечать на сообщения
Вы не можете редактировать свои сообщения
Вы не можете удалять свои сообщения
Вы не можете голосовать в опросах
Вы не можете прикреплять файлы к сообщениям
Вы не можете скачивать файлы