Важное объявление!
У Нас Все раздачи мультитрекерные, при нуле пиров в релизах, можете смело вставать на закачку!
 
Автор Сообщение

димитри37

Стаж:
3 года 10 месяцев
Сообщений:
1237

Репутация: 127

[+] [-]
Вне форума [Профиль] [ЛС]

Лучшее предложение / The Best Offer
Страна: Италия, США
Жанр: триллер
Год выпуска: 2013
Продолжительность: 02:10:58
Перевод: Профессиональный (дублированный) Звук TS
Cубтитры: нет
Оригинальная аудиодорожка: нет-Режиссер: Джузеппе Торнаторе / Giuseppe Tornatore
В ролях: Джеффри Раш, Джим Стёрджесс, Сильвия Хукс, Дональд Сазерленд, Филип Джексон, Дермот Краули, Кируна Стамелл, Лия Кебеде, Катерина Каподилиста, Ген Сето-Описание: Вергилий Олдман — управляющий директор ведущего аукционного дома. Время от времени со своим партнёром Билли на глазах у всего мира он проворачивает хитроумные афёры, ловко манипулируя и вводя в заблуждение как продавцов, так и покупателей. В секретном зале своей виллы он собрал сотни бесценных картин из разных эпох.
Однажды таинственная женщина, скрывающая свою личность, просит его продать антиквариат ее семьи. Среди многочисленных произведений искусства раз за разом Олдман обнаруживает частицы давно утерянного механизма. В своё время поговаривали, что для того, чтобы его оживить создатели прибегали к помощи высших сил… Складывая как пазл найденные детали, вместе со своим гениальным другом Робертом, они пытаются разгадать этот секрет. Но Олдман заинтересован не только предметами старины…-Доп. информация:
премьера (мир) 1 января 2013
премьера (РФ) 1 августа 2013

-Качество видео: HDRip
Формат видео: AVI
Видео: XviD, 720x304, 2037 kb/s, 2,35:1, 24,000 fps
Аудио: MP3, 192 kb/s (2 ch), 48,0 КHz

MediaInfo

Общее
Полное имя : E:\Luchshee.Predlozhenie.2013.Dt.HDRip.2100MB.avi
Формат : AVI
Формат/Информация : Audio Video Interleave
Профиль формата : OpenDML
Размер файла : 2,05 Гбайт
Продолжительность : 2 ч. 10 м.
Общий поток : 2241 Кбит/сек
Программа кодирования : VirtualDubMod 1.5.10.3 | www.virtualdub-fr.org || (build 2550/release)
Библиотека кодирования : VirtualDubMod build 2550/release
Видео
Идентификатор : 0
Формат : MPEG-4 Visual
Профиль формата : Advanced Simple@L5
Параметр BVOP формата : 2
Параметр QPel формата : Нет
Параметр GMC формата : Без точки перехода
Параметр матрицы формата : Выборочная
Идентификатор кодека : XVID
Идентификатор кодека/Подсказка : XviD
Продолжительность : 2 ч. 10 м.
Битрейт : 2037 Кбит/сек
Ширина : 720 пикселей
Высота : 304 пикселя
Соотношение сторон : 2,35:1
Частота кадров : 24,000 кадра/сек
Цветовое пространство : YUV
Субдискретизация насыщенности : 4:2:0
Битовая глубина : 8 бит
Тип развёртки : Прогрессивная
Метод сжатия : С потерями
Бит/(Пиксели*Кадры) : 0.388
Размер потока : 1,86 Гбайт (91%)
Библиотека кодирования : XviD 1.2.1 (UTC 2008-12-04)
Аудио
Идентификатор : 1
Формат : MPEG Audio
Версия формата : Version 1
Профиль формата : Layer 3
Режим : Joint stereo
Идентификатор кодека : 55
Идентификатор кодека/Подсказка : MP3
Продолжительность : 2 ч. 10 м.
Вид битрейта : Постоянный
Битрейт : 192 Кбит/сек
Каналы : 2 канала
Частота : 48,0 КГц
Метод сжатия : С потерями
Размер потока : 180 Мбайт (9%)
Выравнивание : Соединение по промежуткам
Продолжительность промежутка : 42 мс. (1,00 видеокадр)
Время предзагрузки промежутка : 504 мс.

Скриншоты

-Источник:
Показать сообщения:    

Текущее время: Сегодня 08:16

Часовой пояс: GMT



Вы не можете начинать темы
Вы не можете отвечать на сообщения
Вы не можете редактировать свои сообщения
Вы не можете удалять свои сообщения
Вы не можете голосовать в опросах
Вы не можете прикреплять файлы к сообщениям
Вы не можете скачивать файлы
Наши партнеры: интернет магазин Ивановского трикотажа textilla.ru