Ивановский Торрент трекер
Яндекс.Погода
 

[Цитировать]
димитри37

Лунный папаГод выпуска: 1999
Страна: Россия, Германия, Франция, Япония, Швейцария, Австрия, Таджикистан, Узбекистан
Жанр: комедия, драма
Продолжительность: 01:44:50
Cубтитры: английские
Навигация по главам: есть
Режиссер: Бахтиер Худойназаров
Сценарий: Бахтиер Худойназаров, Ираклий Квирикадзе
Продюсер: Филипп Аврил, Christa Saredi, Ян Шутте, Майкл Сибер, Хайнц Стуссак
Оператор: Daniar Abdurakhmanov, Мартин Гшлахт, Dusan Joksimovic, Ростислав Пирумов, Рали Ралчев
Композитор: Далер Назаров
В ролях: Чулпан Хаматова (Мамлакат), Мориц Бляйбтрой (Насреддин), Ато Мухамеджанов (Сафар), Мераб Нинидзе (Алик), Полина Райкина (Хабибула, озвучка), Николай Фоменко (Ясир), Лола Мирзорахимова (Зубе), Шерали Абдулкайсов (Акбар), Динмухаммед Ахимов (гинеколог), Азалбек Назриев (Алишер Хамраев), Алефтина Галиева (танцовщица), Барвина Гулямова (танцовщица)-Описание: Далеко-далеко, в одной жаркой восточной стране, на берегу моря, в шумном и пестром поселке жила девушка Мамлакат. Она очень любила своего отца и несчастного брата, потерявшего на войне рассудок. Но больше всего на свете она любила театр. Ей казалось, что актеры - самые необыкновенные люди на свете.
Однажды, лунной ночью, она встретила отца своего будущего ребенка - он назвался актером заезжего театра. И вот Мамлакат беременна, ее отец и брат в отчаянии. Чтобы избежать позора, все семейство отправляется на поиски незадачливого «лунного» папаши.- -Качество: DVDRip
Исходник: DVD5 [cinematik.net tnx subprimitive]
Формат: Matroska
Видеокодек: AVC
Аудиокодек: AC3
Видео: 744x450 (1.653); 2500 Kbps; 25 fps
Аудио: Russian; AC3; 448 Kbps; CBR; 6 ch
Субтитры: English-

screenshots

MI

General
Unique ID : 193962047407048115402529460671467738579 (0x91EBBB44BC99740BA925FDB59247D5D3)
Complete name : Лунный папа.mkv
Format : Matroska
File size : 2.16 GiB
Duration : 1h 44mn
Overall bit rate : 2 949 Kbps
Movie name : Лунный папа (1999) DVDRip by Skazhutin
Encoded date : UTC 2011-07-07 06:40:15
Writing application : mkvmerge v4.8.0 ('I Got The...') built on May 24 2011 03:12:58
Writing library : libebml v1.2.0 + libmatroska v1.1.0
Attachment : Yes / Yes
Video
ID : 1
Format : AVC
Format/Info : Advanced Video Codec
Format profile : High@L3.2
Format settings, CABAC : Yes
Format settings, ReFrames : 16 frames
Codec ID : V_MPEG4/ISO/AVC
Duration : 1h 44mn
Bit rate : 2 501 Kbps
Width : 698 pixels
Height : 450 pixels
Display aspect ratio : 1.653
Original display aspect ratio : 1.655
Frame rate : 25.000 fps
Color space : YUV
Chroma subsampling : 4:2:0
Bit depth : 8 bits
Scan type : Progressive
Bits/(Pixel*Frame) : 0.318
Stream size : 1.79 GiB (83%)
Writing library : x264 core 115 r2008 4c552d8
Encoding settings : cabac=1 / ref=16 / deblock=1:-2:-1 / analyse=0x3:0x113 / me=umh / subme=10 / psy=1 / psy_rd=1.00:0.00 / mixed_ref=1 / me_range=24 / chroma_me=1 / trellis=2 / 8x8dct=1 / cqm=0 / deadzone=21,11 / fast_pskip=0 / chroma_qp_offset=-4 / threads=6 / sliced_threads=0 / nr=0 / decimate=0 / interlaced=0 / bluray_compat=0 / constrained_intra=0 / bframes=11 / b_pyramid=2 / b_adapt=2 / b_bias=0 / direct=3 / weightb=1 / open_gop=0 / weightp=2 / keyint=250 / keyint_min=23 / scenecut=40 / intra_refresh=0 / rc=2pass / mbtree=0 / bitrate=2501 / ratetol=1.0 / qcomp=0.60 / qpmin=0 / qpmax=69 / qpstep=4 / cplxblur=20.0 / qblur=0.5 / ip_ratio=1.40 / pb_ratio=1.30 / aq=1:1.00 / zones=149665,157252,q=35
Language : Russian
Color primaries : BT.470-6 System B, BT.470-6 System G, BT.601-6 625, BT.1358 625, BT.1700 625 PAL, BT.1700 625 SECAM
Transfer characteristics : BT.470-6 System B, BT.470-6 System G
Matrix coefficients : BT.470-6 System B, BT.470-6 System G, BT.601-6 625, BT.1358 625, BT.1700 625 PAL, BT.1700 625 SECAM, IEC 61966-2-4 601
Audio
ID : 2
Format : AC-3
Format/Info : Audio Coding 3
Mode extension : CM (complete main)
Codec ID : A_AC3
Duration : 1h 44mn
Bit rate mode : Constant
Bit rate : 448 Kbps
Channel(s) : 6 channels
Channel positions : Front: L C R, Side: L R, LFE
Sampling rate : 48.0 KHz
Bit depth : 16 bits
Compression mode : Lossy
Stream size : 336 MiB (15%)
Language : Russian
Text
ID : 3
Format : UTF-8
Codec ID : S_TEXT/UTF8
Codec ID/Info : UTF-8 Plain Text
Language : English
Menu
00:00:00.000 : en:Chapter 1
00:00:47.840 : en:Chapter 2
00:06:42.480 : en:Chapter 3
00:11:42.000 : en:Chapter 4
00:15:09.480 : en:Chapter 5
00:19:33.120 : en:Chapter 6
00:24:30.560 : en:Chapter 7
00:28:47.440 : en:Chapter 8
00:33:36.040 : en:Chapter 9
00:37:57.080 : en:Chapter 10
00:42:33.720 : en:Chapter 11
00:48:52.280 : en:Chapter 12
00:54:07.920 : en:Chapter 13
01:00:20.760 : en:Chapter 14
01:07:24.040 : en:Chapter 15
01:15:38.040 : en:Chapter 16
01:26:46.240 : en:Chapter 17
01:34:47.760 : en:Chapter 18


Показать сообщения:    

Текущее время: 15-Дек 08:35

Часовой пояс: UTC ± 0


Вы не можете начинать темы
Вы не можете отвечать на сообщения
Вы не можете редактировать свои сообщения
Вы не можете удалять свои сообщения
Вы не можете голосовать в опросах
Вы не можете прикреплять файлы к сообщениям
Вы не можете скачивать файлы

!ВНИМАНИЕ!
Сайт не предоставляет электронные версии произведений, а занимается лишь коллекционированием и каталогизацией ссылок, присылаемых и публикуемых на форуме нашими читателями. Если вы являетесь правообладателем какого-либо представленного материала и не желаете, чтобы ссылка на него находилась в нашем каталоге, свяжитесь с нами, и мы незамедлительно удалим ее. Файлы для обмена на трекере предоставлены пользователями сайта, и администрация не несет ответственности за их содержание. Просьба не заливать файлы, защищенные авторскими правами, а также файлы нелегального содержания!