Ивановский Торрент трекер
Яндекс.Погода
 

[Цитировать]
HUNTER

Луни Тюнз: кролик в бегах
Looney Tunes: Rabbit Run
Страна: США
Жанр: мультфильм
Продолжительность: 01:14:26
Год выпуска: 2015-Перевод: Профессиональный (Многоголосый закадровый)
Русские субтитры: нет
Режиссёр: Джефф Сьергей / Jeff Siergey-Роли озвучивали: Фред Армисен, Джефф Бергман, Морис ЛаМарш, Рэйчел Дугай, Джим Рэш, Билли Уэст-Описание: Сюжет мультфильма начинается в центральной Мексике. В штабе петуха Фоггорна Леггорна черепаха Сесил наблюдает за объектом – редчайшим цветком флоро оккульто, который расцветает раз в 200 лет и служит величайшим в мире оружием. Леггорн собирается провести спецоперацию по захвату магического цветка, но в самый ответственный момент кто-то похищает растение…-Релиз: | | -Качество: WEB-DLRip
Формат: AVI
Видео: 688x384 (1.79:1), 23,976 fps, XviD 65 ~1 267 kbps avg, 0.20 bit/pixel
Аудио: 48.0 kHz, MPEG Layer 3, 2 ch, ~128 kbps
Субтитры: отсутствуют

MI

Общее
Полное имя : E:\incarcare\rip gata\Looney.Tunes.Rabbit.Run.2015.WEB-DLRip.avi
Формат : AVI
Формат/Информация : Audio Video Interleave
Размер файла : 748 Мбайт
Продолжительность : 1 ч. 14 м.
Общий поток : 1404 Кбит/сек
Программа кодирования : VirtualDubMod 1.5.10.2 (build 2540/release)
Библиотека кодирования : VirtualDubMod build 2540/release
Видео
Идентификатор : 0
Формат : MPEG-4 Visual
Профиль формата : Advanced Simple@L5
Параметр BVOP формата : 1
Параметр QPel формата : Нет
Параметр GMC формата : Без точки перехода
Параметр матрицы формата : Выборочная
Идентификатор кодека : XVID
Идентификатор кодека/Подсказка : XviD
Продолжительность : 1 ч. 14 м.
Битрейт : 1267 Кбит/сек
Ширина : 688 пикселей
Высота : 384 пикселя
Соотношение сторон : 16:9
Частота кадров : 23,976 кадра/сек
Цветовое пространство : YUV
Субдискретизация насыщенности : 4:2:0
Битовая глубина : 8 бит
Тип развёртки : Прогрессивная
Метод сжатия : С потерями
Бит/(Пиксели*Кадры) : 0.200
Размер потока : 675 Мбайт (90%)
Библиотека кодирования : XviD 65
Аудио
Идентификатор : 1
Формат : MPEG Audio
Версия формата : Version 1
Профиль формата : Layer 3
Идентификатор кодека : 55
Идентификатор кодека/Подсказка : MP3
Продолжительность : 1 ч. 14 м.
Вид битрейта : Постоянный
Битрейт : 128 Кбит/сек
Каналы : 2 канала
Частота : 48,0 КГц
Метод сжатия : С потерями
Размер потока : 68,1 Мбайт (9%)
Выравнивание : Соединение по промежуткам
Продолжительность промежутка : 42 мс. (1,00 видеокадр)
Время предзагрузки промежутка : 504 мс.

Скриншоты



Показать сообщения:    

Текущее время: 14-Дек 13:27

Часовой пояс: UTC ± 0


Вы не можете начинать темы
Вы не можете отвечать на сообщения
Вы не можете редактировать свои сообщения
Вы не можете удалять свои сообщения
Вы не можете голосовать в опросах
Вы не можете прикреплять файлы к сообщениям
Вы не можете скачивать файлы

!ВНИМАНИЕ!
Сайт не предоставляет электронные версии произведений, а занимается лишь коллекционированием и каталогизацией ссылок, присылаемых и публикуемых на форуме нашими читателями. Если вы являетесь правообладателем какого-либо представленного материала и не желаете, чтобы ссылка на него находилась в нашем каталоге, свяжитесь с нами, и мы незамедлительно удалим ее. Файлы для обмена на трекере предоставлены пользователями сайта, и администрация не несет ответственности за их содержание. Просьба не заливать файлы, защищенные авторскими правами, а также файлы нелегального содержания!