Важное объявление!
У Нас Все раздачи мультитрекерные, при нуле пиров в релизах, можете смело вставать на закачку!
Статистика раздачи
Размер:     |    Зарегистрирован:     |    Скачан:     |   
Нет
 
     
 
 
Автор Сообщение

HUNTER

Стаж:
5 лет
Сообщений:
68391

Репутация: 101

[+] [-]
Вне форума [Профиль] [ЛС]

Луна - что это?
Год выпуска: 1973
Страна: СССР
Жанр: Научно-популярный
Продолжительность: 16:17
Описание: Об эволюции научных представлений о Луне, об истории исследования Луны с помощью космических аппаратов.
Качество: Teleсine
Формат: AVI
Видео кодек: XviD
Аудио кодек: MP3
Видео: 624x496 594 Kbps 25 fps
Аудио: 64 Kbps constant 44100 Hz 2 channels

Скриншоты

MediaInfo

GeneralComplete name : M:\05. SpaceDust\01.Space\01.USSR\1973 - Луна - что это\Луна - что это (1973).aviFormat : AVIFormat/Info : Audio Video InterleaveFile size : 77.8 MiBDuration : 16mn 17sOverall bit rate : 668 KbpsWriting application : VirtualDubMod 1.5.10.3 (build 2550/release)Writing library : VirtualDubMod build 2550/release
VideoID : 0Format : MPEG-4 VisualFormat profile : Advanced Simple@L5Format settings, BVOP : 3Format settings, QPel : NoFormat settings, GMC : No warppointsFormat settings, Matrix : Default (H.263)Codec ID : XVIDCodec ID/Hint : XviDDuration : 16mn 17sBit rate : 594 KbpsWidth : 624 pixelsHeight : 496 pixelsDisplay aspect ratio : 5:4Frame rate : 25.000 fpsColor space : YUVChroma subsampling : 4:2:0Bit depth : 8 bitsScan type : ProgressiveCompression mode : LossyBits/(Pixel*Frame) : 0.077Stream size : 69.2 MiB (89%)Writing library : XviD 1.2.0.dev47 (UTC 2006-11-01)
AudioID : 1Format : MPEG AudioFormat version : Version 1Format profile : Layer 3Mode : Joint stereoMode extension : MS StereoCodec ID : 55Codec ID/Hint : MP3Duration : 16mn 15sBit rate mode : ConstantBit rate : 64.0 KbpsChannel(s) : 2 channelsSampling rate : 44.1 KHzCompression mode : LossyStream size : 7.44 MiB (10%)Alignment : Split accross interleavesInterleave, duration : 40 ms (1.00 video frame)Interleave, preload duration : 500 ms
Список фильмов по советской космонавтике

_________________
Показать сообщения:    

Текущее время: Сегодня 21:38

Часовой пояс: GMT



Вы не можете начинать темы
Вы не можете отвечать на сообщения
Вы не можете редактировать свои сообщения
Вы не можете удалять свои сообщения
Вы не можете голосовать в опросах
Вы не можете прикреплять файлы к сообщениям
Вы не можете скачивать файлы