Важное объявление!
У Нас Все раздачи мультитрекерные, при нуле пиров в релизах, можете смело вставать на закачку!
Статистика раздачи
Размер:     |    Зарегистрирован:     |    Скачан:     |   
Нет
 
     
 
 
Автор Сообщение

HUNTER

Стаж:
5 лет 1 месяц
Сообщений:
68426

Репутация: 101

[+] [-]
Вне форума [Профиль] [ЛС]

Лунар Орбитер - Космический аппарат для предварительных лунных исследований
The Lunar Orbiter - A Spacecraft to Advance Lunar Exploration
Год выпуска: 1965
Страна: США
Жанр: Документальный
Продолжительность: 00:07:31
Перевод: одноголосый закадровый
озвучивание - Slavnus Spacedust, обработка звука - Anna Spacedust
Русские субтитры: есть, softsub
Оригинальная аудиодорожка: есть, английский
Семпл: http://sendfile.su/1135474
Режиссер: не указанОписание: Фильм рассказывает об устройстве и задачах Лунар Орбитера - космического аппарата, предназначенного для съёмки Луны с окололунной орбиты.Качество: Telecine
Формат: AVI
Видео: XviD 640x480 4:3 1347 kbps 23.976 fps
Аудио 1 (русский): AC3 192 kbps constant 2 ch 48 KHz
Аудио 2 (английский): MP3 128 kbps constant 2 ch 44.1 KHz

MediaInfo

GeneralComplete name : M:\05. SpaceDust\01.Space\02.USA\+ NASA\Moon\1965 - The Lunar Orbiter - A Spacecraft to Advance Lunar Exploration\The Lunar Orbiter - A Spacecraft to Advance Lunar Exploration (1965).aviFormat : AVIFormat/Info : Audio Video InterleaveFile size : 90.5 MiBDuration : 7mn 31sOverall bit rate : 1 682 KbpsWriting application : VirtualDubMod 1.5.10.2 (build 2540/release)Writing library : VirtualDubMod build 2540/release
VideoID : 0Format : MPEG-4 VisualFormat profile : Advanced Simple@L5Format settings, BVOP : 3Format settings, QPel : YesFormat settings, GMC : 3 warppointsFormat settings, Matrix : Default (H.263)Codec ID : XVIDCodec ID/Hint : XviDDuration : 7mn 31sBit rate : 1 347 KbpsWidth : 640 pixelsHeight : 480 pixelsDisplay aspect ratio : 4:3Frame rate : 23.976 fpsColor space : YUVChroma subsampling : 4:2:0Bit depth : 8 bitsScan type : ProgressiveCompression mode : LossyBits/(Pixel*Frame) : 0.183Stream size : 72.5 MiB (80%)Writing library : XviD 1.2.0.dev47 (UTC 2006-11-01)
Audio #1ID : 1Format : AC-3Format/Info : Audio Coding 3Mode extension : CM (complete main)Format settings, Endianness : BigCodec ID : 2000Duration : 7mn 31sBit rate mode : ConstantBit rate : 192 KbpsChannel(s) : 2 channelsChannel positions : Front: L RSampling rate : 48.0 KHzBit depth : 16 bitsCompression mode : LossyStream size : 10.3 MiB (11%)Alignment : Split accross interleavesInterleave, duration : 42 ms (1.00 video frame)Interleave, preload duration : 500 msTitle : VO by Slavnus Spacedust
Audio #2ID : 2Format : MPEG AudioFormat version : Version 1Format profile : Layer 3Mode : Joint stereoMode extension : MS StereoCodec ID : 55Codec ID/Hint : MP3Duration : 7mn 31sBit rate mode : ConstantBit rate : 128 KbpsChannel(s) : 2 channelsSampling rate : 44.1 KHzCompression mode : LossyStream size : 6.88 MiB (8%)Alignment : Split accross interleavesInterleave, duration : 42 ms (1.00 video frame)Interleave, preload duration : 500 ms

Скриншоты



_________________
Показать сообщения:    

Текущее время: Сегодня 22:15

Часовой пояс: GMT



Вы не можете начинать темы
Вы не можете отвечать на сообщения
Вы не можете редактировать свои сообщения
Вы не можете удалять свои сообщения
Вы не можете голосовать в опросах
Вы не можете прикреплять файлы к сообщениям
Вы не можете скачивать файлы