Важное объявление!
У Нас Все раздачи мультитрекерные, при нуле пиров в релизах, можете смело вставать на закачку!
 
Автор Сообщение

HUNTER

Стаж:
4 года 7 месяцев
Сообщений:
61614

Репутация: 101

[+] [-]
Вне форума [Профиль] [ЛС]

Лос-Анджелесская история / L.A. Story
Страна: США
Жанр: комедия, мелодрама
Год выпуска: 1991
Продолжительность: 01:31:22
Перевод 1: Профессиональный (многоголосый закадровый)
Перевод 2: Авторский (одноголосый закадровый) Михалев
Перевод 3: Одноголосый закадровый - Завгородний
Cубтитры: русские, английские
Оригинальная аудиодорожка: английский
Режиссер: Мик Джексон / Mick Jackson
В ролях: Стив Мартин, Виктория Теннант, Ричард Э. Грант, Мэрилу Хеннер, Сара Джессика Паркер, Сьюзен Форристал, Кевин Поллак, Сэм МакМюррей, Патрик Стюарт, Эндрю Амадор
Описание: «Человеку настроения» — синоптику Харрису — надоела работа на телевидении, сумасшедшие ритмы Лос-Анджелеса и вообще всё на свете. Единственная радость — романтическая встреча с английской журналисткой, которая возвращает ему любовь к жизнерадостному хаосу великого города.

Сэмпл: https://yadi.sk/i/pwBsGqn1kWDqP
Тип релиза: BDRip 720p (видео от EbP)
Контейнер: MKV
Видео: AVC, 1280x694, 1.85:1, 6801 kbps, 25.000 fps
Аудио 1: RUS, AC3, 5.1, 48 kHz, 16 bit, 448 kbps (MVO)
Аудио 2: RUS, AC3, 2.0, 48 kHz, 16 bit, 192 kbps (Михалев)
Аудио 3: RUS, AC3, 5.1, 48 kHz, 16 bit, 448 kbps (Завгородний)
Аудио 4: ENG, AC3, 5.1, 48 kHz, 16 bit, 448 kbps
Формат субтитров: softsub (SRT)

MediaInfo

General
Unique ID : 219676373742868953315567328513451441484 (0xA5442170BE562F85BF4EE89540E53D4C)
Complete name : Лос-Анджелесская история [1991] 720p (от EbP).mkv
Format : Matroska
Format version : Version 4 / Version 2
File size : 5.43 GiB
Duration : 1h 31mn
Overall bit rate : 8 506 Kbps
Encoded date : UTC 2015-11-16 22:43:04
Writing application : mkvmerge v8.3.0 ('Over the Horizon') 32bit
Writing library : libebml v1.3.1 + libmatroska v1.4.2
Video
ID : 1
Format : AVC
Format/Info : Advanced Video Codec
Format profile : High@L4.1
Format settings, CABAC : Yes
Format settings, ReFrames : 9 frames
Codec ID : V_MPEG4/ISO/AVC
Duration : 1h 31mn
Bit rate : 6 801 Kbps
Width : 1 280 pixels
Height : 694 pixels
Display aspect ratio : 1.85:1
Frame rate mode : Constant
Frame rate : 25.000 fps
Color space : YUV
Chroma subsampling : 4:2:0
Bit depth : 8 bits
Scan type : Progressive
Bits/(Pixel*Frame) : 0.306
Stream size : 4.34 GiB (80%)
Writing library : x264 core 146 r2538 121396c
Encoding settings : cabac=1 / ref=9 / deblock=1:-3:-3 / analyse=0x3:0x133 / me=umh / subme=10 / psy=1 / psy_rd=1.05:0.00 / mixed_ref=1 / me_range=16 / chroma_me=1 / trellis=2 / 8x8dct=1 / cqm=0 / deadzone=21,11 / fast_pskip=0 / chroma_qp_offset=-2 / threads=12 / lookahead_threads=2 / sliced_threads=0 / nr=0 / decimate=0 / interlaced=0 / bluray_compat=0 / constrained_intra=0 / bframes=9 / b_pyramid=2 / b_adapt=2 / b_bias=0 / direct=3 / weightb=1 / open_gop=0 / weightp=2 / keyint=250 / keyint_min=25 / scenecut=40 / intra_refresh=0 / rc=crf / mbtree=0 / crf=17.0 / qcomp=0.60 / qpmin=0 / qpmax=69 / qpstep=4 / ip_ratio=1.40 / pb_ratio=1.30 / aq=3:0.70 / zones=131693,137057,crf=22
Language : English
Default : Yes
Forced : No
Audio #1
ID : 2
Format : AC-3
Format/Info : Audio Coding 3
Mode extension : CM (complete main)
Format settings, Endianness : Big
Codec ID : A_AC3
Duration : 1h 31mn
Bit rate mode : Constant
Bit rate : 448 Kbps
Channel(s) : 6 channels
Channel positions : Front: L C R, Side: L R, LFE
Sampling rate : 48.0 KHz
Compression mode : Lossy
Stream size : 293 MiB (5%)
Title : MVO
Language : Russian
Default : Yes
Forced : No
Audio #2
ID : 3
Format : AC-3
Format/Info : Audio Coding 3
Mode extension : CM (complete main)
Format settings, Endianness : Big
Codec ID : A_AC3
Duration : 1h 31mn
Bit rate mode : Constant
Bit rate : 192 Kbps
Channel(s) : 2 channels
Channel positions : Front: L R
Sampling rate : 48.0 KHz
Compression mode : Lossy
Stream size : 125 MiB (2%)
Title : AVO (Михалев)
Language : Russian
Default : No
Forced : No
Audio #3
ID : 4
Format : AC-3
Format/Info : Audio Coding 3
Mode extension : CM (complete main)
Format settings, Endianness : Big
Codec ID : A_AC3
Duration : 1h 31mn
Bit rate mode : Constant
Bit rate : 448 Kbps
Channel(s) : 6 channels
Channel positions : Front: L C R, Side: L R, LFE
Sampling rate : 48.0 KHz
Compression mode : Lossy
Stream size : 293 MiB (5%)
Title : AVO (Завгородний)
Language : Russian
Default : No
Forced : No
Audio #4
ID : 5
Format : AC-3
Format/Info : Audio Coding 3
Mode extension : CM (complete main)
Format settings, Endianness : Big
Codec ID : A_AC3
Duration : 1h 31mn
Bit rate mode : Constant
Bit rate : 448 Kbps
Channel(s) : 6 channels
Channel positions : Front: L C R, Side: L R, LFE
Sampling rate : 48.0 KHz
Compression mode : Lossy
Stream size : 293 MiB (5%)
Title : ENG
Language : English
Default : No
Forced : No
Text #1
ID : 6
Format : UTF-8
Codec ID : S_TEXT/UTF8
Codec ID/Info : UTF-8 Plain Text
Language : Russian
Default : No
Forced : No
Text #2
ID : 7
Format : UTF-8
Codec ID : S_TEXT/UTF8
Codec ID/Info : UTF-8 Plain Text
Language : English
Default : No
Forced : No
Menu
00:00:00.000 : :
00:10:44.000 : :
00:19:56.000 : :
00:29:49.000 : :
00:39:32.000 : :
00:46:34.000 : :
00:50:27.000 : :
01:00:41.000 : :
01:10:00.000 : :
01:16:00.000 : :
01:20:34.000 : :
01:27:49.000 : :

_________________
Показать сообщения:    

Текущее время: Сегодня 17:21

Часовой пояс: GMT



Вы не можете начинать темы
Вы не можете отвечать на сообщения
Вы не можете редактировать свои сообщения
Вы не можете удалять свои сообщения
Вы не можете голосовать в опросах
Вы не можете прикреплять файлы к сообщениям
Вы не можете скачивать файлы
Наши партнеры: интернет магазин Ивановского трикотажа textilla.ru