Ивановский Торрент трекер
Яндекс.Погода
 

[Цитировать]
HUNTER

ЛОЛ (ржунимагу) / LOL (Laughing Out Loud)- Страна: Франция
Жанр: Комедия, Мелодрама
Год выпуска: 2008
Продолжительность: 01:38:30-Перевод: Профессиональный (дублированный)
Cубтитры: русские
Оригинальная аудиодорожка: французский-Режиссер: Лиза Азуэлос / Lisa Azuelos
В ролях: Софи Марсо, Жереми Капон, Криста Тере, Марион Шабассоль, Луи Лесаж, Эмиль Бертера, Феликс Моати,
Луис Соммер, Адель Шубар, Джейд-Роуз Паркер, Уоррен Гетта,Александр Астье, Жослин Киврен,
Франсуаз Фабиан, Кристиана Миллет, Том Инверницци, Стефани Мурат, Лоран Бато, Валери Карсенти, Пьере Нинье, Жан-Клод Дофен, Оливье Крувелье,
Катя Кабальеро, Аксель Кинер, Вирджиния Ленте, Лиза Азуэлос, Энн Легаль, Франсуа-Хавьер Бовье, Валид Халид, Кристоф Бурсейе, Джоана Прейсс
Описание: LOL — на языке Интернета означает — Laughing Out Loud, «ржунимагу». Так зовут пятнадцатилетнюю Лолу ее друзья.
Однако когда Лола возвращается в свой класс после каникул, ей не до смеха. Бойфренд ранит ее, признавшись, что изменял ей летом,
а мать совсем не хочет замечать проблем взрослеющей дочери, — у нее у самой полная неразбериха в личной жизни.-Дата мировой премьеры: 27.11.2008
Дата российской премьеры: 06.08.2009
Дата выхода DVD релиза: 10.12.2009. «Новый Диск»
Бонусы: Видеоклип, создатели и исполнители, фотогалерея, смотрите на DVD
Меню: Русское, статичное, озвученное

Сэмпл: Скачать
Тип релиза: DVD9
Контейнер: DVD-Video
Видео: MPEG, PAL 16:9 (720x576) VBR, ~6758 Кбит/сек
Аудио 1: AC-3 at 384 Кбит/сек, 6 канала(ов) 48.0 КГц _(Русская) Дубляж
Аудио 2: AC-3 at 448 Кбит/сек, 6 канала(ов) 48.0 КГц _(Французкая) Оригинал-

MediaInfo

Формат : MPEG-PS
Размер файла : 1024 Мбайт
Продолжительность : 21 м.
Режим общего битрейта : Переменный
Общий поток : 6758 Кбит/сек
Видео
Идентификатор : 224 (0xE0)
Формат : MPEG Video
Версия формата : Version 2
Профиль формата : Main@Main
Параметр BVOP формата : Да
Параметр матрицы формата : По умолчанию
Параметр GOP формата : M=3, N=12
Продолжительность : 21 м.
Вид битрейта : Переменный
Битрейт : 5791 Кбит/сек
Максимальный битрейт : 7000 Кбит/сек
Ширина : 720 пикселей
Высота : 576 пикселей
Соотношение сторон : 16:9
Частота кадров : 25,000 кадров/сек
Стандарт вещания : PAL
Цветовое пространство : YUV
Субдискретизация насыщенности : 4:2:0
Битовая глубина : 8 бит
Тип развёртки : Чересстрочная
Порядок развёртки : Верхнее поле первое
Метод сжатия : С потерями
Бит/(Пиксели*Кадры) : 0.559
Размер потока : 877 Мбайт (86%)
Аудио #1
Идентификатор : 189 (0xBD)-128 (0x80)
Формат : AC-3
Формат/Информация : Audio Coding 3
Расширение режима : CM (complete main)
Параметр Endianness формата : Big
Режим смешивания : DVD-Video
Продолжительность : 21 м.
Вид битрейта : Постоянный
Битрейт : 384 Кбит/сек
Каналы : 6 каналов
Расположение каналов : Front: L C R, Side: L R, LFE
Частота : 48,0 КГц
Битовая глубина : 16 бит
Метод сжатия : С потерями
Размер потока : 58,2 Мбайт (6%)
Аудио #2
Идентификатор : 189 (0xBD)-129 (0x81)
Формат : AC-3
Формат/Информация : Audio Coding 3
Расширение режима : CM (complete main)
Параметр Endianness формата : Big
Режим смешивания : DVD-Video
Продолжительность : 21 м.
Вид битрейта : Постоянный
Битрейт : 448 Кбит/сек
Каналы : 6 каналов
Расположение каналов : Front: L C R, Side: L R, LFE
Частота : 48,0 КГц
Битовая глубина : 16 бит
Метод сжатия : С потерями
Размер потока : 67,9 Мбайт (7%)
Текст
Идентификатор : 189 (0xBD)-32 (0x20)
Формат : RLE
Формат/Информация : Run-length encoding
Режим смешивания : DVD-Video
***************************************************************
Size: 5.70 Gb ( 5 980 060 KBytes ) - DVD-9
Enabled regions: 1, 2, 3, 4, 5, 6, 7, 8
VTS_01 :
Play Length: 00:00:10
Video: PAL 4:3 (720x576) VBR
Audio:
Russian (Dolby AC3, 2 ch)
Russian (Dolby AC3, 2 ch)
Subtitles:
English
English
VTS_02 :
Play Length: 00:00:32
Video: PAL 4:3 (720x576) VBR
Audio:
Russian (Dolby AC3, 2 ch)
Russian (Dolby AC3, 2 ch)
Subtitles:
English
English
VTS_03 :
Play Length: 00:00:10
Video: PAL 4:3 (720x576) VBR
Subtitles:
English
English
VTS_04 :
Play Length: 00:01:40
Video: PAL 4:3 (720x576) VBR
Audio:
Russian (Dolby AC3, 2 ch)
Russian (Dolby AC3, 2 ch)
Subtitles:
English
English
VTS_05 :
Play Length: 01:38:30
Video: PAL 16:9 (720x576) VBR, Auto Pan&Scan
Audio:
Russian (Dolby AC3, 6 ch)
Francais (Dolby AC3, 6 ch)
Subtitles:
Russian
English
VTS_06 :
Play Length: 00:02:57
Video: PAL 16:9 (720x576) VBR, Auto Pan&Scan
Audio:
Francais (Dolby AC3, 2 ch)
Francais (Dolby AC3, 2 ch)
Subtitles:
English
English
VTS_07 :
Play Length: 00:02:25
Video: PAL 16:9 (720x576) VBR, Auto Pan&Scan
Audio:
Francais (Dolby AC3, 6 ch)
Francais (Dolby AC3, 6 ch)
Subtitles:
English
English
VTS_08 :
Play Length: 00:02:17
Video: PAL 16:9 (720x576) VBR, Auto Pan&Scan
Audio:
Russian (Dolby AC3, 2 ch)
Russian (Dolby AC3, 2 ch)
Subtitles:
English
English
VTS_09 :
Play Length: 00:01:55
Video: PAL 4:3 (720x576) VBR
Audio:
English (Dolby AC3, 2 ch)
English (Dolby AC3, 2 ch)
Subtitles:
English
English
VTS_10 :
Play Length: 00:01:53
Video: PAL 16:9 (720x576) VBR, Auto Pan&Scan
Audio:
English (Dolby AC3, 2 ch)
English (Dolby AC3, 2 ch)
Subtitles:
English
English
VTS_11 :
Play Length: 00:01:52
Video: PAL 16:9 (720x576) VBR, Auto Pan&Scan
Audio:
English (Dolby AC3, 2 ch)
English (Dolby AC3, 2 ch)
Subtitles:
English
English
VTS_12 :
Play Length: 00:01:28
Video: PAL 4:3 (720x576) VBR
Audio:
Russian (Dolby AC3, 2 ch)
Russian (Dolby AC3, 2 ch)
Subtitles:
English
English
Menu Video:
PAL 16:9 (720x576) VBR
Auto Pan&Scan, Auto Letterboxed
Menu Subtitles:
Not specified
Menu English Language Unit :
Root Menu
Subpicture Menu
Audio Menu
Chapter (PTT) Menu
*******************************

Скриншоты меню

Скриншоты



-
Показать сообщения:    

Текущее время: 22-Окт 16:11

Часовой пояс: UTC - 1


Вы не можете начинать темы
Вы не можете отвечать на сообщения
Вы не можете редактировать свои сообщения
Вы не можете удалять свои сообщения
Вы не можете голосовать в опросах
Вы не можете прикреплять файлы к сообщениям
Вы не можете скачивать файлы

!ВНИМАНИЕ!
Сайт не предоставляет электронные версии произведений, а занимается лишь коллекционированием и каталогизацией ссылок, присылаемых и публикуемых на форуме нашими читателями. Если вы являетесь правообладателем какого-либо представленного материала и не желаете, чтобы ссылка на него находилась в нашем каталоге, свяжитесь с нами, и мы незамедлительно удалим ее. Файлы для обмена на трекере предоставлены пользователями сайта, и администрация не несет ответственности за их содержание. Просьба не заливать файлы, защищенные авторскими правами, а также файлы нелегального содержания!