Важное объявление!
У Нас Все раздачи мультитрекерные, при нуле пиров в релизах, можете смело вставать на закачку!
Статистика раздачи
Размер:     |    Зарегистрирован:     |    Скачан:     |   
Нет
 
     
 
 
Автор Сообщение

HUNTER

Стаж:
5 лет
Сообщений:
68401

Репутация: 101

[+] [-]
Вне форума [Профиль] [ЛС]

-Лови волну! / Surf's Up«Лёд тает - пингвины зажигают»
Страна: США
Студия: Sony Pictures Animation
Жанр: Мультфильм, комедия, семейный, спорт
Год выпуска: 2007
Продолжительность: 01:25:31-Перевод 1: Профессиональный (полное дублирование), BD EUR
Перевод 2: Авторский (одноголосый, закадровый), В. Королев
Оригинальная аудиодорожка: английская
Cубтитры: русские, английские
Режиссер: Эш Браннон / Ash Brannon, Крис Бак / Chris Buck
В ролях: Шайа ЛаБаф, Джефф Бриджес, Зои Дешанель, Джон Хидер, Джеймс Вудс, Дидрих Бадер, Марио Кантоне, Келли Слэйтер, Роб Мачадо, Сал Масикела
Описание: Команда пингвинов-документалистов приглашает зрителей взглянуть за кулисы самого спортивного, драматичного и опасного соревнования серфингистов на планете — Ежегодного Пингвиньего чемпионата мира по серфингу.-
Сэмпл: скачать-Релиз от -
Автор рипа: Elheym
Качество: BDRip-AVC (источник: / Blu-ray EUR Remux [Surf's.Up.2007.BluRay.1080p.AVC.Remux.HDCLUB] / 1080p)
Контейнер: MKV
Видео: 1008x546 (1.85:1), 23.976 fps, MPEG-4 AVC, ~4470 kbps avg, 0.339 bit/pixel
Аудио #1: Русский: AC3, 5.1, 48 kHz, ~448 Кбит/с | Профессиональный (полное дублирование), BD EUR |
Аудио #2: Русский: AC3, 5.1, 48 kHz, ~448 Кбит/с | Авторский (одноголосый, закадровый), Королев |
Аудио #3: Английский: AC3, 5.1, 48 kHz, ~448 Кбит/с | Оригинал |
Аудио #4: Украинский: AC3, 5.1, 48 kHz, ~448 Кбит/с | Профессиональный (полное дублирование), R5 |
Субтитры: Русские (полные), Английские (полные)
Главы: Присутствуют, сохранены оригинальные

MediaInfo

Уникальный идентификатор : 250380702671244904162800378843415073966 (0xBC5D91BC2551DA3AB39917B065C654AE)
Полное имя : Surf's.Up.2007.TRIPLE.BDRip-AVC.x264.AC3.-HQCLUB.mkv
Формат : Matroska
Версия формата : Version 2
Размер файла : 3,54 Гбайт
Продолжительность : 1 ч. 25 м.
Общий поток : 5932 Кбит/сек
Дата кодирования : UTC 2015-01-11 15:21:45
Программа кодирования : mkvmerge v5.2.0 ('I can't explain') built on Dec 18 2011 18:12:03
Библиотека кодирования : libebml v1.2.3 + libmatroska v1.3.0
Видео
Идентификатор : 1
Формат : AVC
Формат/Информация : Advanced Video Codec
Профиль формата : High@L4.1
Параметр CABAC формата : Да
Параметр ReFrames формата : 14 кадров
Идентификатор кодека : V_MPEG4/ISO/AVC
Продолжительность : 1 ч. 25 м.
Битрейт : 4470 Кбит/сек
Ширина : 1008 пикселей
Высота : 546 пикселей
Соотношение сторон : 1,85:1
Режим частоты кадров : Постоянный
Частота кадров : 23,976 кадра/сек
Цветовое пространство : YUV
Субдискретизация насыщенности : 4:2:0
Битовая глубина : 8 бит
Тип развёртки : Прогрессивная
Бит/(Пиксели*Кадры) : 0.339
Размер потока : 2,67 Гбайт (75%)
Заголовок : Лови волну! / Surf's Up (2007) BDRip-AVC by HQCLUB [Elheym]
Библиотека кодирования : x264 core 144 r2525kMod 40bb568
Настройки программы : cabac=1 / ref=14 / deblock=1:0:0 / analyse=0x3:0x133 / me=umh / subme=11 / psy=1 / fade_compensate=0.00 / psy_rd=1.12:0.00 / mixed_ref=1 / me_range=48 / chroma_me=1 / trellis=2 / 8x8dct=1 / cqm=0 / deadzone=21,11 / fast_pskip=0 / chroma_qp_offset=-4 / threads=6 / lookahead_threads=1 / sliced_threads=0 / nr=0 / decimate=0 / interlaced=0 / bluray_compat=0 / constrained_intra=0 / fgo=0 / bframes=9 / b_pyramid=2 / b_adapt=2 / b_bias=0 / direct=1 / weightb=1 / open_gop=0 / weightp=2 / keyint=230 / keyint_min=23 / scenecut=40 / intra_refresh=0 / rc_lookahead=40 / rc=crf / mbtree=0 / crf=20.4900 / qcomp=0.70 / qpmin=0 / qpmax=69 / qpstep=4 / vbv_maxrate=50000 / vbv_bufsize=62500 / crf_max=0.0 / nal_hrd=none / filler=0 / ip_ratio=1.40 / pb_ratio=1.30 / aq=3:0.90 / zones=112909,123018,b=0.45
Язык : English
Default : Да
Forced : Нет
Аудио #1
Идентификатор : 2
Формат : AC-3
Формат/Информация : Audio Coding 3
Расширение режима : CM (complete main)
Параметр Endianness формата : Big
Идентификатор кодека : A_AC3
Продолжительность : 1 ч. 25 м.
Вид битрейта : Постоянный
Битрейт : 448 Кбит/сек
Каналы : 6 каналов
Расположение каналов : Front: L C R, Side: L R, LFE
Частота : 48,0 КГц
Битовая глубина : 16 бит
Метод сжатия : С потерями
Размер потока : 274 Мбайт (8%)
Заголовок : АС3 5.1 @ 448 kbps - Dub, BD EUR
Язык : Russian
Default : Нет
Forced : Нет
Аудио #2
Идентификатор : 3
Формат : AC-3
Формат/Информация : Audio Coding 3
Расширение режима : CM (complete main)
Параметр Endianness формата : Big
Идентификатор кодека : A_AC3
Продолжительность : 1 ч. 25 м.
Вид битрейта : Постоянный
Битрейт : 448 Кбит/сек
Каналы : 6 каналов
Расположение каналов : Front: L C R, Side: L R, LFE
Частота : 48,0 КГц
Битовая глубина : 16 бит
Метод сжатия : С потерями
Размер потока : 274 Мбайт (8%)
Заголовок : АС3 5.1 @ 448 kbps - AVO, Korolev
Язык : Russian
Default : Нет
Forced : Нет
Аудио #3
Идентификатор : 4
Формат : AC-3
Формат/Информация : Audio Coding 3
Расширение режима : CM (complete main)
Параметр Endianness формата : Big
Идентификатор кодека : A_AC3
Продолжительность : 1 ч. 25 м.
Вид битрейта : Постоянный
Битрейт : 448 Кбит/сек
Каналы : 6 каналов
Расположение каналов : Front: L C R, Side: L R, LFE
Частота : 48,0 КГц
Битовая глубина : 16 бит
Метод сжатия : С потерями
Размер потока : 274 Мбайт (8%)
Заголовок : АС3 5.1 @ 448 kbps - Original
Язык : English
Default : Нет
Forced : Нет
Текст #1
Идентификатор : 5
Формат : UTF-8
Идентификатор кодека : S_TEXT/UTF8
Идентификатор кодека/Информация : UTF-8 Plain Text
Заголовок : Full
Язык : Russian
Default : Нет
Forced : Нет
Текст #2
Идентификатор : 6
Формат : UTF-8
Идентификатор кодека : S_TEXT/UTF8
Идентификатор кодека/Информация : UTF-8 Plain Text
Заголовок : Full
Язык : English
Default : Нет
Forced : Нет
Меню
00:00:00.000 : :Chapter 01
00:06:08.159 : :Chapter 02
00:12:08.519 : :Chapter 03
00:17:43.061 : :Chapter 04
00:23:06.176 : :Chapter 05
00:27:52.920 : :Chapter 06
00:33:00.854 : :Chapter 07
00:38:14.417 : :Chapter 08
00:44:13.401 : :Chapter 09
00:46:43.384 : :Chapter 10
00:51:40.014 : :Chapter 11
00:55:47.386 : :Chapter 12
01:02:08.600 : :Chapter 13
01:07:54.946 : :Chapter 14
01:12:10.993 : :Chapter 15
01:16:24.622 : :Chapter 16

x264 log

x264 [info]: frame I:722 Avg QP:20.27 size: 77522
x264 [info]: frame P:26023 Avg QP:21.98 size: 40936
x264 [info]: frame B:96274 Avg QP:23.32 size: 18901
x264 [info]: consecutive B-frames: 1.1% 1.3% 3.6% 32.7% 19.9% 32.8% 4.4% 3.1% 0.8% 0.3%
x264 [info]: ref P L0: 38.3% 9.7% 17.4% 6.4% 6.3% 4.1% 4.5% 2.2% 2.5% 1.8% 2.0% 1.5% 1.7% 1.4% 0.2% 0.0%
x264 [info]: ref B L0: 67.7% 11.2% 5.9% 3.4% 2.5% 2.2% 1.8% 1.3% 1.1% 1.1% 0.9% 0.6% 0.3%
x264 [info]: ref B L1: 94.0% 6.0%

Скриншоты

Сравнения

c Juicy_J
http://rutracker.org/forum/viewtopic.php?t=1471123-Источник
-Juicy_J
-Elheym

_________________
Показать сообщения:    

Текущее время: Сегодня 11:49

Часовой пояс: GMT



Вы не можете начинать темы
Вы не можете отвечать на сообщения
Вы не можете редактировать свои сообщения
Вы не можете удалять свои сообщения
Вы не можете голосовать в опросах
Вы не можете прикреплять файлы к сообщениям
Вы не можете скачивать файлы