Лист Ожидания / Сезон: 1 Серии: 1-12 из 12 (Андрей Черных) [2012, Мелодрама, SATRip] :: Ивановский Торрент трекер
Важное объявление!
У Нас Все раздачи мультитрекерные, при нуле пиров в релизах, можете смело вставать на закачку!
 
Автор Сообщение

HUNTER

Стаж:
4 года 11 месяцев
Сообщений:
66052

Репутация: 101

[+] [-]
Вне форума [Профиль] [ЛС]

--Лист Ожидания
Сезон: 1 Серии: 1-12 из 12
--
Год выпуска: 2012
Производство: Россия, Украина ,"Шпиль" и FILM.UA
Жанр: Мелодрама
Продолжительность: 00:51:52
Перевод:
Субтитры: Нету--Режиссёр: Андрей Черных--В ролях: Никита Салопин, Мария Аниканова, Дарья Волга, Даниил Спиваковский, Иван Оганесян, Федор Черных, Ирма Витовская--Описание: Для врачей клиники трансплантологии каждый день без преувеличений становится битвой за чью-то жизнь, а их личные волнения могут быть смертельным приговором для пациента, их отточенные движения становятся решающими и здесь нет места личным эмоциям. Бюрократия и постоянные подозрения правоохранительных органов, личные трагедии и волнения, сомнения и страхи должны остаться за дверью операционной, чтобы врачи могли спасти еще одну жизнь.
Каждая серия – это отдельный рассказ о событиях в жизни медперсонала клиники трансплантологии Грохольского.--Качество: --Формат: AVI
Видео кодек: XviD
Аудио кодек: MP3
Видео: 720x384 (1.88:1), 25 fps, XviD build 64, 1278 kbps avg, 0.19 bit/pixel
Аудио: 48 kHz, MPEG Layer 3, 2 ch, 192.00 kbps avg--Релиз от: / Сэмпл / Рекламы Нет!
--

MI


Общее
Полное имя : D:\Фильмы,Сериалы,Шоу\Лист Ожидания\1-я Серия.avi
Формат : AVI
Формат/Информация : Audio Video Interleave
Размер файла : 550 Мбайт
Продолжительность : 52 м.
Общий поток : 1478 Кбит/сек
Программа кодирования : VirtualDubMod 1.5.4.1 (build 2178/release)
Библиотека кодирования : VirtualDubMod build 2178/release
Видео
Идентификатор : 0
Формат : MPEG-4 Visual
Профиль формата : Advanced Simple@L5
Параметр BVOP формата : 1
Параметр QPel формата : Нет
Параметр GMC формата : Без точки перехода
Параметр матрицы формата : Выборочная
Идентификатор кодека : XVID
Идентификатор кодека/Подсказка : XviD
Продолжительность : 52 м.
Битрейт : 1279 Кбит/сек
Ширина : 720 пикселей
Высота : 384 пикселя
Соотношение сторон : 1,85:1
Частота кадров : 25,000 кадров/сек
Цветовое пространство : YUV
Субдискретизация насыщенности : 4:2:0
Битовая глубина : 8 бит
Тип развёртки : Прогрессивная
Метод сжатия : С потерями
Бит/(Пиксели*Кадры) : 0.185
Размер потока : 476 Мбайт (87%)
Библиотека кодирования : XviD 64
Аудио
Идентификатор : 1
Формат : MPEG Audio
Версия формата : Version 1
Профиль формата : Layer 3
Режим : Joint stereo
Расширение режима : MS Stereo
Идентификатор кодека : 55
Идентификатор кодека/Подсказка : MP3
Продолжительность : 52 м.
Вид битрейта : Постоянный
Битрейт : 192 Кбит/сек
Каналы : 2 канала
Частота : 48,0 КГц
Метод сжатия : С потерями
Размер потока : 71,5 Мбайт (13%)
Выравнивание : Соединение по промежуткам
Продолжительность промежутка : 80 мс. (2,00 видеокадра)
Время предзагрузки промежутка : 504 мс.
Библиотека кодирования : LAME3.98r
Настройки программы : -m j -V 4 -q 2 -lowpass 18.6 -b 192
--

Скриншоты

-- --
--

_________________
Показать сообщения:    

Текущее время: Сегодня 08:55

Часовой пояс: GMT



Вы не можете начинать темы
Вы не можете отвечать на сообщения
Вы не можете редактировать свои сообщения
Вы не можете удалять свои сообщения
Вы не можете голосовать в опросах
Вы не можете прикреплять файлы к сообщениям
Вы не можете скачивать файлы