Ивановский Торрент трекер
Яндекс.Погода
 

[Цитировать]
HUNTER

Лисенок Вук / Vuk / Vuk: The Little Fox
советская телевизионная версия-Страна: Венгрия
Жанр: приключения, семейный
Год выпуска: 1981 г.
Продолжительность: 01:11:09
Перевод: Профессиональный (дублированный) - Главная редакция кинопрограмм ЦТ | 1984
Русские субтитры: нет-Режиссёр: Аттила Даргаи / Attila Dargay- | Релиз: -Описание: Этот мультипликационный фильм, созданный по мотивам одноименной сказки И. Фекете, рассказывает о приключениях маленького озорного лисенка Вука. Много пережил этот хвастунишка, прежде чем превратился в сильного, умного лиса, сумевшего перехитрить даже известного охотника Гладкокожего.-Доп. информация: Большое спасибо Maks1mKA за VHS кассету с советской телевизионной версией мультфильма и bora86bora за её оцифровку.-Семпл: скачать-Качество: VHSRip-AVC
Формат: MKV
Видео: 684x564 (4:3) @ 746x564, 25.000 fps, AVC, ~2625 Kbps, 0.272 bits/pixel
Аудио: Русский, 48.0 KHz, AC3, 1 ch, 192 Kbps - Дубляж | Главная редакция кинопрограмм ЦТ | 1984

MediaInfo

GeneralUnique ID : 240260343970606949013632115865539821478 (0xB4C07586EF0FC915A34F8AF78B97BFA6)Complete name : Vuk.1981.VHSRip.x264-rutracker.xfiles.mkvFormat : MatroskaFormat version : Version 4 / Version 2File size : 1.43 GiBDuration : 1h 11mnOverall bit rate : 2 874 KbpsMovie name : Vuk.1981.VHSRip.x264-rutracker.xfilesEncoded date : UTC 2014-07-21 16:56:42Writing application : mkvmerge v7.0.0 ('Where We Going') 64bit built on Jun 9 2014 15:16:27Writing library : libebml v1.3.0 + libmatroska v1.4.1DURATION : 01:11:08.960000000NUMBER_OF_FRAMES : 106724NUMBER_OF_BYTES : 1430314459_STATISTICS_WRITING_APP : mkvmerge v7.0.0 ('Where We Going') 64bit built on Jun 9 2014 15:16:27_STATISTICS_WRITING_DATE_UTC : 2014-07-21 16:56:42_STATISTICS_TAGS : BPS DURATION NUMBER_OF_FRAMES NUMBER_OF_BYTES
VideoID : 1Format : AVCFormat/Info : Advanced Video CodecFormat profile : High@L4.0Format settings, CABAC : YesFormat settings, ReFrames : 16 framesCodec ID : V_MPEG4/ISO/AVCDuration : 1h 11mnBit rate : 2 625 KbpsWidth : 684 pixelsHeight : 564 pixelsDisplay aspect ratio : 4:3Frame rate mode : ConstantFrame rate : 25.000 fpsColor space : YUVChroma subsampling : 4:2:0Bit depth : 8 bitsScan type : ProgressiveBits/(Pixel*Frame) : 0.272Stream size : 1.30 GiB (91%)Title : http://rutracker.org/forum/viewtopic.php?t=4786327Writing library : x264 core 142 r2431kMod ac76440Encoding settings : cabac=1 / ref=16 / deblock=1:-2:-1 / analyse=0x3:0x133 / me=umh / subme=11 / psy=1 /fade_compensate=0.00 / psy_rd=1.00:0.00 / mixed_ref=1 / me_range=48 / chroma_me=1 / trellis=2 / 8x8dct=1 / cqm=0 /deadzone=21,11 / fast_pskip=0 / chroma_qp_offset=-2 / threads=12 / lookahead_threads=3 / sliced_threads=0 / nr=0 /decimate=1 / interlaced=0 / bluray_compat=0 / constrained_intra=0 / fgo=0 / bframes=16 / b_pyramid=2 / b_adapt=2 /b_bias=0 / direct=3 / weightb=1 / open_gop=0 / weightp=2 / keyint=250 / keyint_min=25 / scenecut=40 / intra_refresh=0 /rc=crf / mbtree=0 / crf=22.5000 / qcomp=0.60 / qpmin=0 / qpmax=69 / qpstep=4 / ip_ratio=1.40 / pb_ratio=1.30 / aq=3:0.90Language : RussianDefault : YesForced : NoColor primaries : BT.601 PALTransfer characteristics : BT.470 System B, BT.470 System GMatrix coefficients : BT.601
AudioID : 2Format : AC-3Format/Info : Audio Coding 3Mode extension : CM (complete main)Format settings, Endianness : BigCodec ID : A_AC3Duration : 1h 11mnBit rate mode : ConstantBit rate : 192 KbpsChannel(s) : 1 channelChannel positions : Front: CSampling rate : 48.0 KHzBit depth : 16 bitsCompression mode : LossyStream size : 97.7 MiB (7%)Language : RussianDefault : YesForced : No
Показать сообщения:    

Текущее время: 21-Сен 16:51

Часовой пояс: UTC - 1


Вы не можете начинать темы
Вы не можете отвечать на сообщения
Вы не можете редактировать свои сообщения
Вы не можете удалять свои сообщения
Вы не можете голосовать в опросах
Вы не можете прикреплять файлы к сообщениям
Вы не можете скачивать файлы

!ВНИМАНИЕ!
Сайт не предоставляет электронные версии произведений, а занимается лишь коллекционированием и каталогизацией ссылок, присылаемых и публикуемых на форуме нашими читателями. Если вы являетесь правообладателем какого-либо представленного материала и не желаете, чтобы ссылка на него находилась в нашем каталоге, свяжитесь с нами, и мы незамедлительно удалим ее. Файлы для обмена на трекере предоставлены пользователями сайта, и администрация не несет ответственности за их содержание. Просьба не заливать файлы, защищенные авторскими правами, а также файлы нелегального содержания!