Важное объявление!
У Нас Все раздачи мультитрекерные, при нуле пиров в релизах, можете смело вставать на закачку!
Статистика раздачи
Размер:     |    Зарегистрирован:     |    Скачан:     |   
Нет
 
     
 
 
Автор Сообщение

димитри37

Стаж:
4 года 5 месяцев
Сообщений:
1236

Репутация: 127

[+] [-]
Вне форума [Профиль] [ЛС]

Лимонадный Джо или Лошадиная опера-
Страна: Чехословакия
Жанр: комедия, приключения, вестерн
Год выпуска: 1964
Продолжительность: 01:39:22
Перевод: Профессиональный (дублированный) советский дубляж
Cубтитры: нет
Режиссер: Ольдржих Липский / Oldrich Lipsky
В ролях: Карел Фиала, Милош Копецки, Квета Фиалова, Ольга Шоберова, Рудольф Дейл, Богуш Загорский, Йозеф Глиномаз, Карел Эффа, Вальдемар Матушка, Эман Фиала и другие
Описание: В маленьком городке на «Диком западе» крепкие парни развлекаются дракой, стрельбой и пьют виски. Нравы там грубы и жестоки, закон один — «Кто кого раньше застрелит». Даже шериф не в силах этому противостоять. Но однажды в салун заходит Он — Лимонадный Джо, и в городке начинается новая жизнь. В него влюбляются все первые красавицы городка. Секрет популярности героя «Коло-локовый лимонад» — единственный напиток, самого меткого стрелка и ловкого наездника...
Качество видео: HDTVRip Исходник HDTVRip(720p)
Формат видео: AVI
Видео: Xvid 672x288 23.98fps 907Kbps 0.20bit/pixel
Аудио: MPEG Audio Layer 3 48000Hz stereo 128Kbps- -Многократный лидер кинопроката в СССР
Любимый фильм поколения 1960-1970

MediaInfo

Общее
Полное имя : G:\TORRENTS\Фильмы\Иностранные фильмы\1964 год\Лимонадный Джо или Лошадиная опера\Limonadnyj Joe (1964) - HDTVRip by TaniaVGTU.avi
Формат : AVI
Формат/Информация : Audio Video Interleave
Размер файла : 743 Мбайт
Продолжительность : 1 ч. 39 м.
Общий поток : 1045 Кбит/сек
Программа кодирования : VirtualDubMod 1.5.10.2 (build 2540/release)
Библиотека кодирования : VirtualDubMod build 2540/release
Видео
Идентификатор : 0
Формат : MPEG-4 Visual
Профиль формата : Advanced Simple@L5
Параметр BVOP формата : 1
Параметр QPel формата : Нет
Параметр GMC формата : Без точки перехода
Параметр матрицы формата : Default (H.263)
Идентификатор кодека : XVID
Идентификатор кодека/Подсказка : XviD
Продолжительность : 1 ч. 39 м.
Битрейт : 908 Кбит/сек
Ширина : 672 пикселя
Высота : 288 пикселей
Соотношение сторон : 2,35:1
Частота кадров : 23,976 кадра/сек
Цветовое пространство : YUV
Субдискретизация насыщенности : 4:2:0
Битовая глубина : 8 бит
Тип развёртки : Прогрессивная
Метод сжатия : С потерями
Бит/(Пиксели*Кадры) : 0.196
Размер потока : 645 Мбайт (87%)
Библиотека кодирования : XviD 1.2.1 (UTC 2008-12-04)
Аудио
Идентификатор : 1
Формат : MPEG Audio
Версия формата : Version 1
Профиль формата : Layer 3
Идентификатор кодека : 55
Идентификатор кодека/Подсказка : MP3
Продолжительность : 1 ч. 39 м.
Вид битрейта : Постоянный
Битрейт : 128 Кбит/сек
Каналы : 2 канала
Частота : 48,0 КГц
Метод сжатия : С потерями
Размер потока : 90,9 Мбайт (12%)
Выравнивание : Соединение по промежуткам
Продолжительность промежутка : 42 мс. (1,00 видеокадр)
Время предзагрузки промежутка : 504 мс.
Библиотека кодирования : LAME3.98r
Настройки программы : -m s -V 4 -q 2 -lowpass 17 -b 128

Скриншот c названием фильма

Скриншоты

Показать сообщения:    

Текущее время: Сегодня 13:23

Часовой пояс: GMT



Вы не можете начинать темы
Вы не можете отвечать на сообщения
Вы не можете редактировать свои сообщения
Вы не можете удалять свои сообщения
Вы не можете голосовать в опросах
Вы не можете прикреплять файлы к сообщениям
Вы не можете скачивать файлы