Лило и Стич / Lilo & Stitch (Дин ДеБлуа, Крис Сандерс / Dean DeBlois, Chris Sanders) [2002, Анимация, WEB-DLRip] Dub :: Ивановский Торрент трекер
Важное объявление!
У Нас Все раздачи мультитрекерные, при нуле пиров в релизах, можете смело вставать на закачку!
Статистика раздачи
Размер:     |    Зарегистрирован:     |    Скачан:     |   
Нет
 
     
 
 
Автор Сообщение

HUNTER

Стаж:
4 года 11 месяцев
Сообщений:
66066

Репутация: 101

[+] [-]
Вне форума [Профиль] [ЛС]

Лило и Стич / Lilo & Stitch
-Страна: США
Жанр: Анимация
Год выпуска: 2002
Продолжительность: 01:25:45-Перевод: Профессиональный (полное дублирование)
Cубтитры: нет-Режиссер: Дин ДеБлуа, Крис Сандерс / Dean DeBlois, Chris Sanders
В ролях: Дэйви Чейз, Крис Сандерс, Тиа Каррере, Дэвид Огден Стайерз, Кевин МакДональд, Винг Реймз, Зои Колдуэлл, Джейсон Скотт Ли, Кевин Майкл Ричардсон, Сьюзэн Хегарти
Описание: Лило - это маленькая девочка, живущая на Гавайах. Она сирота и живет вместе со своей старшей сестрой Нани. Лило любит всех животных, но больше всего она подружилась с собачкой по имени Стич, которая на самом деле совсем не собачка, а - замаскированный инопланетянин.
Дело было так: некоего преступника по имени Стич переправляли в интергалактическую тюрьму, но ему удалось ускользнуть и приземлиться на Земле, где он и встретил Лило. И тут Стич прикинулся собакой, дабы скрыться от преследования интергалактической полиции. Теперь Стич учится тому, чему не был обучен - заботе о других...
-Качество видео: WEB-DLRip [Lilo.&.Stitch.2002.720p.WEB-DL.Rus.Eng.HDCLUB]
Формат видео: AVI-Видео: 704x416 (1.69:1), 23.976 кадра/сек, 2015 Кбит/сек, 0.287 bit/pixel
Аудио 1: AC-3, 384 Кбит/сек, 6 каналов, 48,0 КГц | DUB
-- -
-

MediaInfo

Код:
General
Complete name                            : D:\ФИЛЬМЫ\Lilo.&.Stitch.2002.HDRip.andre90.avi
Format                                   : AVI
Format/Info                              : Audio Video Interleave
File size                                : 1.44 GiB
Duration                                 : 1h 25mn
Overall bit rate                         : 2 407 Kbps
Writing application                      : VirtualDubMod 1.5.10.2 (build 2540/release)
Writing library                          : VirtualDubMod build 2540/release
Video
ID                                       : 0
Format                                   : MPEG-4 Visual
Format profile                           : Advanced Simple@L5
Format settings, BVOP                    : 1
Format settings, QPel                    : No
Format settings, GMC                     : No warppoints
Format settings, Matrix                  : Custom
Codec ID                                 : XVID
Codec ID/Hint                            : XviD
Duration                                 : 1h 25mn
Bit rate                                 : 2 015 Kbps
Width                                    : 704 pixels
Height                                   : 416 pixels
Display aspect ratio                     : 1.692
Frame rate                               : 23.976 fps
Color space                              : YUV
Chroma subsampling                       : 4:2:0
Bit depth                                : 8 bits
Scan type                                : Progressive
Compression mode                         : Lossy
Bits/(Pixel*Frame)                       : 0.287
Stream size                              : 1.21 GiB (84%)
Writing library                          : XviD 1.2.1 (UTC 2008-12-04)
Audio
ID                                       : 1
Format                                   : AC-3
Format/Info                              : Audio Coding 3
Mode extension                           : CM (complete main)
Format settings, Endianness              : Big
Codec ID                                 : 2000
Duration                                 : 1h 25mn
Bit rate mode                            : Constant
Bit rate                                 : 384 Kbps
Channel(s)                               : 6 channels
Channel positions                        : Front: L C R, Side: L R, LFE
Sampling rate                            : 48.0 KHz
Bit depth                                : 16 bits
Compression mode                         : Lossy
Stream size                              : 234 MiB (16%)
Alignment                                : Split accross interleaves
Interleave, duration                     : 42 ms (1.01 video frame)
Interleave, preload duration             : 500 ms

_________________
Показать сообщения:    

Текущее время: Сегодня 12:22

Часовой пояс: GMT



Вы не можете начинать темы
Вы не можете отвечать на сообщения
Вы не можете редактировать свои сообщения
Вы не можете удалять свои сообщения
Вы не можете голосовать в опросах
Вы не можете прикреплять файлы к сообщениям
Вы не можете скачивать файлы