Важное объявление!
У Нас Все раздачи мультитрекерные, при нуле пиров в релизах, можете смело вставать на закачку!
Статистика раздачи
Размер:     |    Зарегистрирован:     |    Скачан:     |   
Нет
 
     
 
 
Автор Сообщение

HUNTER

Стаж:
5 лет
Сообщений:
68004

Репутация: 101

[+] [-]
Вне форума [Профиль] [ЛС]

Лига Справедливости: Трон Атлантиды / Justice League: Throne of Atlantis-
-Страна: США
Жанр: мультфильм, фантастика, боевик, приключения
Продолжительность: 01:12:06
Год выпуска: 2015
Перевод: Любительский (многоголосый закадровый)
Русские субтитры: нет-Режиссёр: Этан Сполдинг / Ethan Spaulding
Роли озвучивали: Кристофер Горам, Мэтт Лантер, Сумали Монтано, Джерри О’Коннелл, Джейсон О’Мара, Сэм Уитвер, Мелик Бергер, Стивен Блум, Патрик Кавано, Ларри Седар и т.д.-Описание: После смерти короля Атлантиды его место занял его преемник - Орм. Новый Повелитель подводного мира очень жесток. Он пытается убедить всех, что люди на поверхности хотят вторгнуться в Атлантиду. Поэтому Орм решил объявить им войну. Но противостоять ему сможет лишь его родной брат Аквамен, который является прямым наследником трона Атлантиды, но даже не догадывался об этом. Но когда он узнает о своих истинных корнях, то решает восстановить мир между людьми и жителями океана. В этом ему помогут члены Лиги Справедливости. Вместе они восстановят мир...-
Семпл: http://multi-up.com/1029671-Качество: HDRip
Формат: AVI
Видео: MPEG4, XviD, 720x400 (16:9), 23.976 fps, 2 068 Kbps (0.300 bit/pixel)
Аудио #1: AC-3, 48.0 KHz, 2 ch, 192 Kbps, CBR [Любительский многоголосный - DuBDraG Project и Evolution Studio]
Аудио #2: AC-3, 48.0 KHz, 6 ch, 448 Kbps, CBR [English]-

Подробные технические данные

GeneralComplete name : D:\Justi1ce.L3ague.Thr0ne.0f.Atlant1s.2015.L.HDRip.1400MB.aviFormat : AVIFormat/Info : Audio Video InterleaveFile size : 1.37 GiBDuration : 1h 12mnOverall bit rate : 2 722 KbpsWriting application : VirtualDubMod 1.5.10.2 (build 2540/release)Writing library : VirtualDubMod build 2540/release
VideoID : 0Format : MPEG-4 VisualFormat profile : Advanced Simple@L5Format settings, BVOP : 2Format settings, QPel : NoFormat settings, GMC : No warppointsFormat settings, Matrix : CustomCodec ID : XVIDCodec ID/Hint : XviDDuration : 1h 12mnBit rate : 2 068 KbpsWidth : 720 pixelsHeight : 400 pixelsDisplay aspect ratio : 16:9Frame rate : 23.976 fpsColor space : YUVChroma subsampling : 4:2:0Bit depth : 8 bitsScan type : ProgressiveCompression mode : LossyBits/(Pixel*Frame) : 0.300Stream size : 1.04 GiB (76%)Writing library : XviD 1.2.1 (UTC 2008-12-04)
Audio #1ID : 1Format : AC-3Format/Info : Audio Coding 3Mode extension : CM (complete main)Format settings, Endianness : BigCodec ID : 2000Duration : 1h 12mnBit rate mode : ConstantBit rate : 192 KbpsChannel(s) : 2 channelsChannel positions : Front: L RSampling rate : 48.0 KHzBit depth : 16 bitsCompression mode : LossyStream size : 99.0 MiB (7%)Alignment : Split accross interleavesInterleave, duration : 42 ms (1.00 video frame)Interleave, preload duratio : 500 ms
Audio #2ID : 2Format : AC-3Format/Info : Audio Coding 3Mode extension : CM (complete main)Format settings, Endianness : BigCodec ID : 2000Duration : 1h 12mnBit rate mode : ConstantBit rate : 448 KbpsChannel(s) : 6 channelsChannel positions : Front: L C R, Side: L R, LFESampling rate : 48.0 KHzBit depth : 16 bitsCompression mode : LossyStream size : 231 MiB (16%)Alignment : Split accross interleavesInterleave, duration : 42 ms (1.00 video frame)Interleave, preload duratio : 500 ms

-

Скриншоты


_________________
Показать сообщения:    

Текущее время: Сегодня 02:38

Часовой пояс: GMT



Вы не можете начинать темы
Вы не можете отвечать на сообщения
Вы не можете редактировать свои сообщения
Вы не можете удалять свои сообщения
Вы не можете голосовать в опросах
Вы не можете прикреплять файлы к сообщениям
Вы не можете скачивать файлы